Teen Sex Videos Tube Movies 1396

Young Sex Movies 1400Tube Young Sex 1390

Posted in Amateur, HD Porn, Sex Movies, Teen | 10626 Views |


Rate this girl !!!




\r\n\r\n\r\nhttp://img102.imagetwist.com/i/05205/3j6ac4py3di2.jpeg\r\n\r\n Link(839 Mb||32:14||1280*720||WMV)



DOWNLOAD

Keep2share.cc - Uploaded.net - Openload.co - Rapidu.net


http://keep2share.cc/file/44286caca641c
http://ryushare.com/3qg40icvrtdw/NBSGKYln.rar
http://ul.to/aklitpe7


Premium here:
uploaded.net
keep2share.cc
rapidu.net.cc


Teens related to Teen Sex Videos Tube Movies 1396


free hd video x art 226034 ryushare uploaded keep2share

free hd video x art 226034

Free Porn Videos Xxx Movies Pussy Porn 3704 ryushare uploaded keep2share

Free Porn Videos Xxx Movies Pussy Porn 3704

High Definition Movies on HD Teen Porn XXX Tube 2211 ryushare uploaded keep2share

High Definition Movies on HD Teen Porn XXX Tube 2211

Girls do porn downloads 4056 ryushare uploaded keep2share

Girls do porn downloads 4056

RealExGirlfriends.com Megan Rain – Brunette Teen ryushare uploaded keep2share

RealExGirlfriends.com Megan Rain – Brunette Teen

Katja N – Katja Loves The Taste Of His Cum ryushare uploaded keep2share

Katja N – Katja Loves The Taste Of His Cum

Teen Sex Movies 225608 ryushare uploaded keep2share

Teen Sex Movies 225608

Sex Teens porn movies 4742 ryushare uploaded keep2share

Sex Teens porn movies 4742

xxx 18porn sex ryushare uploaded keep2share

xxx 18porn sex

Free Young Porn Videos XXX Teen Porn 224328 ryushare uploaded keep2share

Free Young Porn Videos XXX Teen Porn 224328

Young Virgin Pussy Teen Fuck Tube 3398 ryushare uploaded keep2share

Young Virgin Pussy Teen Fuck Tube 3398

Teen xxx sex hd 5505 ryushare uploaded keep2share

Teen xxx sex hd 5505

Hardcore Sex Hub 225234 ryushare uploaded keep2share

Hardcore Sex Hub 225234

Teen Sex Movies 5445 ryushare uploaded keep2share

Teen Sex Movies 5445

xxx movie hd colle 226176 ryushare uploaded keep2share

xxx movie hd colle 226176

HQ Sex Movies Download 5330 ryushare uploaded keep2share

HQ Sex Movies Download 5330

8 Teen XXX – Teen Sex 2117 ryushare uploaded keep2share

8 Teen XXX – Teen Sex 2117

HD Porn Teen Sex Videos 224362 ryushare uploaded keep2share

HD Porn Teen Sex Videos 224362

Kira Queen ryushare uploaded keep2share

Kira Queen

Teen xxx sex hd 224866 ryushare uploaded keep2share

Teen xxx sex hd 224866

Jungal PornStars Sex 226234 ryushare uploaded keep2share

Jungal PornStars Sex 226234

Teenage Fuck Clips 225863 ryushare uploaded keep2share

Teenage Fuck Clips 225863

Nude Teens fucking hard 5262 ryushare uploaded keep2share

Nude Teens fucking hard 5262

young virgin sex mp4 ryushare uploaded keep2share

young virgin sex mp4

21 sextury hd resimler 226581 ryushare uploaded keep2share

21 sextury hd resimler 226581

www sxc a2z hd ryushare uploaded keep2share

www sxc a2z hd

Free Young Porn Videos XXX Teen Porn 225792 ryushare uploaded keep2share

Free Young Porn Videos XXX Teen Porn 225792

CastingCouch X Jayden Full HD ryushare uploaded keep2share

CastingCouch X Jayden Full HD

HD Porn Videos 225579 ryushare uploaded keep2share

HD Porn Videos 225579

18OnlyGirls Nikita (Gina Devine) Here I Cum! ryushare uploaded keep2share

18OnlyGirls Nikita (Gina Devine) Here I Cum!

anysex free video com ryushare uploaded keep2share

anysex free video com

Wow porn hd downloads 224041 ryushare uploaded keep2share

Wow porn hd downloads 224041

Anjelica – One Love… One Life ryushare uploaded keep2share

Anjelica – One Love… One Life

Young teens tube hot girls free porn video 5000 ryushare uploaded keep2share

Young teens tube hot girls free porn video 5000

HD Teens Sex Tube Videos XxX 4315 ryushare uploaded keep2share

HD Teens Sex Tube Videos XxX 4315

Report broken links / Post a comment

You must be logged in to post a comment.



General\r\nComplete name : D:HD Teens Download Porn Sex clips movies Tube.xxxNBSGKYlnNBSGKYln.wmv\r\nFormat : Windows Media\r\nFile size : 839 MiB\r\nDuration : 32mn 14s\r\nOverall bit rate mode : Constant\r\nOverall bit rate : 3 639 Kbps\r\nMaximum Overall bit rate : 3 659 Kbps\r\nEncoded date : UTC 2010-01-16 02:06:11.181\r\nWriting application : TMPGEnc 4.0 XPress Version. 4.4.2.238\r\n\r\nVideo\r\nID : 2\r\nFormat : VC-1\r\nFormat profile : MP@HL\r\nCodec ID : WMV3\r\nCodec ID/Info : Windows Media Video 9\r\nCodec ID/Hint : WMV3\r\nDescription of the codec : Windows Media Video 9 - Professional\r\nDuration : 32mn 14s\r\nBit rate mode : Constant\r\nBit rate : 3 500 Kbps\r\nWidth : 1 280 pixels\r\nHeight : 720 pixels\r\nDisplay aspect ratio : 16:9\r\nFrame rate : 29.970 fps\r\nColor space : YUV\r\nChroma subsampling : 4:2:0\r\nBit depth : 8 bits\r\nScan type : Progressive\r\nCompression mode : Lossy\r\nBits/(Pixel*Frame) : 0.127\r\nStream size : 807 MiB (96%)\r\nLanguage : English (US)\r\n\r\nAudio\r\nID : 1\r\nFormat : WMA\r\nFormat version : Version 2\r\nCodec ID : 161\r\nCodec ID/Info : Windows Media Audio\r\nDescription of the codec : Windows Media Audio 9.2 - 128 kbps, 48 kHz, stereo 1-pass CBR\r\nDuration : 32mn 14s\r\nBit rate mode : Constant\r\nBit rate : 128 Kbps\r\nChannel(s) : 2 channels\r\nSampling rate : 48.0 KHz\r\nBit depth : 16 bits\r\nStream size : 29.5 MiB (4%)\r\nLanguage : English (US)\r\n\r\n