Teen Sex Videos Tube Movies 1466

Teen Porn XXX Tube 1470Teen porn movies 1460

Posted in HD Porn, Pornstar, Sex Movies, Teen | 10141 Views |


Rate this girl !!!




\r\n\r\n\r\n \r\n\r\nhttp://img102.imagetwist.com/i/05218/rjmzkloh8a1m.jpeg\r\n\r\nLink(554 Mb||24:12||1280*720||MP4)\r\n\r\n \r\n\r\n 



DOWNLOAD

Keep2share.cc - Uploaded.net - Openload.co - Rapidu.net


http://keep2share.cc/file/e4cbb1a825207
http://ryushare.com/9q4c027jp1q9/CSNGRDmd.rar
http://ul.to/nqyo9306


Premium here:
uploaded.net
keep2share.cc
rapidu.net.cc


Teens related to Teen Sex Videos Tube Movies 1466


Hd young videos 3878 ryushare uploaded keep2share

Hd young videos 3878

Nude Teens fucking hard 223878 ryushare uploaded keep2share

Nude Teens fucking hard 223878

Teen Pornstars Orgy ryushare uploaded keep2share

Teen Pornstars Orgy

Good Teen Tube Sexy Young Naked Girls Movies 224925 ryushare uploaded keep2share

Good Teen Tube Sexy Young Naked Girls Movies 224925

Teen xxx sex hd 224369 ryushare uploaded keep2share

Teen xxx sex hd 224369

Free Porn Videos Xxx Movies Pussy Porn 1860 ryushare uploaded keep2share

Free Porn Videos Xxx Movies Pussy Porn 1860

Fresh Teen Videos 2970 ryushare uploaded keep2share

Fresh Teen Videos 2970

Watch Teen Sex Videos HD 1246 ryushare uploaded keep2share

Watch Teen Sex Videos HD 1246

Backyard Amateurs (3 scenes) ryushare uploaded keep2share

Backyard Amateurs (3 scenes)

caprice videos xxx ryushare uploaded keep2share

caprice videos xxx

Wow girls downloads hd 224254 ryushare uploaded keep2share

Wow girls downloads hd 224254

HQ Sex Movies Download 5339 ryushare uploaded keep2share

HQ Sex Movies Download 5339

Teen Sex Movies Young Porn Tube Vids 4969 ryushare uploaded keep2share

Teen Sex Movies Young Porn Tube Vids 4969

Free High Quality Sex Movies 2139 ryushare uploaded keep2share

Free High Quality Sex Movies 2139

Hot sex girls movies download 2809 ryushare uploaded keep2share

Hot sex girls movies download 2809

Big sax video free download 226079 ryushare uploaded keep2share

Big sax video free download 226079

HD Teens Sex Tube Videos XxX 225345 ryushare uploaded keep2share

HD Teens Sex Tube Videos XxX 225345

Super hot teens fuck swim pool ryushare uploaded keep2share

Super hot teens fuck swim pool

hd full vergin sex video download ryushare uploaded keep2share

hd full vergin sex video download

Www kakikata hot xxxbideo com ryushare uploaded keep2share

Www kakikata hot xxxbideo com

www free hd virgin porn download com ryushare uploaded keep2share

www free hd virgin porn download com

Hot Teen Sex HD videos 1371 ryushare uploaded keep2share

Hot Teen Sex HD videos 1371

HQ Sex Movies Download 225194 ryushare uploaded keep2share

HQ Sex Movies Download 225194

College Teen Sex 5112 ryushare uploaded keep2share

College Teen Sex 5112

WoodmanCastingX Viola Bailey Hard mega co nz/|depositfiles com/files|uploaded to|ul to/ 226656 ryushare uploaded keep2share

WoodmanCastingX Viola Bailey Hard mega co nz/|depositfiles com/files|uploaded to|ul to/ 226656

www free x video hq hd com 226236 ryushare uploaded keep2share

www free x video hq hd com 226236

xxx hd art videos download 226012 ryushare uploaded keep2share

xxx hd art videos download 226012

HD Porn Videos 2640 ryushare uploaded keep2share

HD Porn Videos 2640

www HD xxxvideos downlaod com ryushare uploaded keep2share

www HD xxxvideos downlaod com

Download young porn sex 5145 ryushare uploaded keep2share

Download young porn sex 5145

Hot Teen Sex HD videos 5653 ryushare uploaded keep2share

Hot Teen Sex HD videos 5653

Japanese Young teen Amateur ryushare uploaded keep2share

Japanese Young teen Amateur

Janna – Real Homemade Sex Tape ryushare uploaded keep2share

Janna – Real Homemade Sex Tape

K Two Teasing Tongues 8 A ryushare uploaded keep2share

K Two Teasing Tongues 8 A

pinkworld anal porn videos download mp4 ryushare uploaded keep2share

pinkworld anal porn videos download mp4

Report broken links / Post a comment

You must be logged in to post a comment.



General\r\nComplete name : D:HD Teens Download Porn Sex clips movies Tube.xxxCSNGRDmdCSNGRDmd.mp4\r\nFormat : MPEG-4\r\nFormat profile : Base Media\r\nCodec ID : isom\r\nFile size : 554 MiB\r\nDuration : 24mn 12s\r\nOverall bit rate : 3 200 Kbps\r\nWriting application : Lavf52.111.0\r\n\r\nVideo\r\nID : 1\r\nFormat : AVC\r\nFormat/Info : Advanced Video Codec\r\nFormat profile : High@L3.1\r\nFormat settings, CABAC : Yes\r\nFormat settings, ReFrames : 4 frames\r\nCodec ID : avc1\r\nCodec ID/Info : Advanced Video Coding\r\nDuration : 24mn 12s\r\nBit rate : 3 067 Kbps\r\nWidth : 1 280 pixels\r\nHeight : 720 pixels\r\nDisplay aspect ratio : 16:9\r\nFrame rate mode : Constant\r\nFrame rate : 25.000 fps\r\nColor space : YUV\r\nChroma subsampling : 4:2:0\r\nBit depth : 8 bits\r\nScan type : Progressive\r\nBits/(Pixel*Frame) : 0.133\r\nStream size : 531 MiB (96%)\r\nWriting library : x264 core 116\r\nEncoding settings : cabac=1 / ref=3 / deblock=1:0:0 / analyse=0x3:0x113 / me=hex / subme=7 / psy=1 / psy_rd=1.00:0.00 / mixed_ref=1 / me_range=16 / chroma_me=1 / trellis=0 / 8x8dct=1 / cqm=0 / deadzone=21,11 / fast_pskip=1 / chroma_qp_offset=-2 / threads=16 / sliced_threads=0 / nr=0 / decimate=1 / interlaced=0 / bluray_compat=0 / constrained_intra=0 / bframes=8 / b_pyramid=2 / b_adapt=1 / b_bias=0 / direct=1 / weightb=1 / open_gop=0 / weightp=2 / keyint=50 / keyint_min=25 / scenecut=40 / intra_refresh=0 / rc_lookahead=40 / rc=crf / mbtree=1 / crf=20.0 / qcomp=0.60 / qpmin=10 / qpmax=51 / qpstep=4 / ip_ratio=1.41 / aq=1:1.00\r\nLanguage : Russian\r\n\r\nAudio\r\nID : 2\r\nFormat : AAC\r\nFormat/Info : Advanced Audio Codec\r\nFormat profile : LC\r\nCodec ID : 40\r\nDuration : 24mn 12s\r\nBit rate mode : Constant\r\nBit rate : 128 Kbps\r\nChannel(s) : 2 channels\r\nChannel positions : Front: L R\r\nSampling rate : 44.1 KHz\r\nCompression mode : Lossy\r\nStream size : 22.2 MiB (4%)\r\nLanguage : Russian\r\n\r\n\r\n