Teen Sex Videos Tube Movies 1942

Young teens tube hot girls free porn video 1947Teenage Fuck Clips 1939

Posted in HD Porn, Pornstar, Sex Movies, Teen | 8014 Views |


Rate this girl !!!




\r\n\r\n\r\n\r\nhttp://img103.imagetwist.com/i/05297/9ar0iyp3d1ef.jpg\r\n\r\n Link(1.85 Gb||31:14||1280*720||MP4)



DOWNLOAD

Keep2share.cc - Uploaded.net - Openload.co - Rapidu.net


http://ul.to/wq4aqxx2
http://ryushare.com/ko7qkdjk9z3r/SNDKTSky.rar
http://keep2share.cc/file/59ed7979df3fa


Premium here:
uploaded.net
keep2share.cc
rapidu.net.cc


Teens related to Teen Sex Videos Tube Movies 1942


Young Sex Movies 224351 ryushare uploaded keep2share

Young Sex Movies 224351

Angelica, The Red Fox X-Art.com ryushare uploaded keep2share

Angelica, The Red Fox X-Art.com

Teen Sex Porn Videos Free Nude Teens 2202 ryushare uploaded keep2share

Teen Sex Porn Videos Free Nude Teens 2202

teens handjob porn ryushare uploaded keep2share

teens handjob porn

Teen Sex Movies 225608 ryushare uploaded keep2share

Teen Sex Movies 225608

sex full clarety videos 226664 ryushare uploaded keep2share

sex full clarety videos 226664

Hot Teen Sex 2164 ryushare uploaded keep2share

Hot Teen Sex 2164

Sex Teens porn movies 2846 ryushare uploaded keep2share

Sex Teens porn movies 2846

telecharger free young sex mp4 hd ryushare uploaded keep2share

telecharger free young sex mp4 hd

H D SEXI VIDEO com 226526 ryushare uploaded keep2share

H D SEXI VIDEO com 226526

www xxxnx hd porn video ryushare uploaded keep2share

www xxxnx hd porn video

HD Porn Video 5646 ryushare uploaded keep2share

HD Porn Video 5646

fullhdsexvideo ryushare uploaded keep2share

fullhdsexvideo

free download sovjetmassage com 226506 ryushare uploaded keep2share

free download sovjetmassage com 226506

Grace Solo 2 ryushare uploaded keep2share

Grace Solo 2

sex short clips in high quality ryushare uploaded keep2share

sex short clips in high quality

Free Porn Videos Xxx Movies Pussy Porn 1860 ryushare uploaded keep2share

Free Porn Videos Xxx Movies Pussy Porn 1860

Teen Sex Porn Videos Free Nude Teens 225569 ryushare uploaded keep2share

Teen Sex Porn Videos Free Nude Teens 225569

PORN HUB HQ SEXY DUONLOD com 226478 ryushare uploaded keep2share

PORN HUB HQ SEXY DUONLOD com 226478

mania teennporn 226597 ryushare uploaded keep2share

mania teennporn 226597

Hot Teen Sex HD videos 2425 ryushare uploaded keep2share

Hot Teen Sex HD videos 2425

Young Virgin Pussy Teen Fuck Tube 2308 ryushare uploaded keep2share

Young Virgin Pussy Teen Fuck Tube 2308

Sweet Teen Porn – Young Porn Videos 4630 ryushare uploaded keep2share

Sweet Teen Porn – Young Porn Videos 4630

Nice porn teen video mp4 quality ryushare uploaded keep2share

Nice porn teen video mp4 quality

HD Porn Videos 4503 ryushare uploaded keep2share

HD Porn Videos 4503

Hot Teen Sex 3965 ryushare uploaded keep2share

Hot Teen Sex 3965

Lola Taylor – Hardcore ryushare uploaded keep2share

Lola Taylor – Hardcore

xxxvedio HD 18 year download ryushare uploaded keep2share

xxxvedio HD 18 year download

Adult Hardcore XXX Sex Videos 3788 ryushare uploaded keep2share

Adult Hardcore XXX Sex Videos 3788

Sweet Teen Porn – Young Porn Videos 3539 ryushare uploaded keep2share

Sweet Teen Porn – Young Porn Videos 3539

Young Sex Movies 5695 ryushare uploaded keep2share

Young Sex Movies 5695

Tube Young Sex 224693 ryushare uploaded keep2share

Tube Young Sex 224693

XxxSax fd com ryushare uploaded keep2share

XxxSax fd com

89 com hd vedeos 226744 ryushare uploaded keep2share

89 com hd vedeos 226744

Upload Hdxxx short videos ryushare uploaded keep2share

Upload Hdxxx short videos

Report broken links / Post a comment

You must be logged in to post a comment.



General\r\nComplete name : D:HD Teens Download Porn Sex clips movies Tube.xxxSNDKTSkySNDKTSky.mp4\r\nFormat : MPEG-4\r\nFormat profile : Base Media\r\nCodec ID : isom\r\nFile size : 1.85 GiB\r\nDuration : 31mn 14s\r\nOverall bit rate : 8 470 Kbps\r\nWriting application : Lavf54.37.100\r\n\r\nVideo\r\nID : 1\r\nFormat : AVC\r\nFormat/Info : Advanced Video Codec\r\nFormat profile : High@L4.1\r\nFormat settings, CABAC : Yes\r\nFormat settings, ReFrames : 5 frames\r\nCodec ID : avc1\r\nCodec ID/Info : Advanced Video Coding\r\nDuration : 31mn 14s\r\nBit rate : 8 000 Kbps\r\nWidth : 1 280 pixels\r\nHeight : 720 pixels\r\nDisplay aspect ratio : 16:9\r\nFrame rate mode : Constant\r\nFrame rate : 23.976 fps\r\nColor space : YUV\r\nChroma subsampling : 4:2:0\r\nBit depth : 8 bits\r\nScan type : Progressive\r\nBits/(Pixel*Frame) : 0.362\r\nStream size : 1.75 GiB (94%)\r\nWriting library : x264 core 128 r2216 198a7ea\r\nEncoding settings : cabac=1 / ref=5 / deblock=1:0:0 / analyse=0x3:0x113 / me=umh / subme=8 / psy=1 / psy_rd=1.00:0.00 / mixed_ref=1 / me_range=16 / chroma_me=1 / trellis=1 / 8x8dct=1 / cqm=0 / deadzone=21,11 / fast_pskip=1 / chroma_qp_offset=-2 / threads=36 / lookahead_threads=6 / sliced_threads=0 / nr=0 / decimate=1 / interlaced=0 / bluray_compat=0 / constrained_intra=0 / bframes=3 / b_pyramid=2 / b_adapt=2 / b_bias=0 / direct=3 / weightb=1 / open_gop=0 / weightp=2 / keyint=60 / keyint_min=6 / scenecut=40 / intra_refresh=0 / rc_lookahead=50 / rc=abr / mbtree=1 / bitrate=8000 / ratetol=1.0 / qcomp=0.60 / qpmin=0 / qpmax=69 / qpstep=4 / ip_ratio=1.40 / aq=1:1.00\r\nTagged date : UTC 2014-01-17 09:13:35\r\n\r\nAudio\r\nID : 2\r\nFormat : AAC\r\nFormat/Info : Advanced Audio Codec\r\nFormat profile : LC\r\nCodec ID : 40\r\nDuration : 31mn 14s\r\nDuration_LastFrame : 33ms\r\nBit rate mode : Constant\r\nBit rate : 128 Kbps\r\nChannel(s) : 2 channels\r\nChannel positions : Front: L R\r\nSampling rate : 48.0 KHz\r\nCompression mode : Lossy\r\nStream size : 28.6 MiB (2%)\r\nTagged date : UTC 2014-01-17 09:13:35\r\n\r\n