Teen Tits Tube, Young Girls Porn Videos 3672

Teen Sex Porn Videos Free Nude Teens 3671Free Porn Videos Xxx Movies Pussy Porn 3666

Posted in HD Porn, Pornstar, Sex Movies, Teen | 6105 Views |


Rate this girl !!!


(11 raters, 40 scores, average: 3.64 out of 5, 72.73%)







DOWNLOAD

Keep2share.cc - Uploaded.net - Openload.co - Rapidu.net



Premium here:
uploaded.net
keep2share.cc
rapidu.net.cc


Teens related to Teen Tits Tube, Young Girls Porn Videos 3672


Sex Teens porn movies 2846 ryushare uploaded keep2share

Sex Teens porn movies 2846

www hd sex world moves 226438 ryushare uploaded keep2share

www hd sex world moves 226438

Young XXX Tube Videos 4107 ryushare uploaded keep2share

Young XXX Tube Videos 4107

High Definition Movies on HD Teen Porn XXX Tube 1708 ryushare uploaded keep2share

High Definition Movies on HD Teen Porn XXX Tube 1708

free hd teen porn clips ryushare uploaded keep2share

free hd teen porn clips

Free Porn Videos Xxx Movies Pussy Porn 225817 ryushare uploaded keep2share

Free Porn Videos Xxx Movies Pussy Porn 225817

Small girls and boys porn 3525 ryushare uploaded keep2share

Small girls and boys porn 3525

xxxvidohd donlwd com ryushare uploaded keep2share

xxxvidohd donlwd com

HD Teens Sex Tube Videos XxX 2706 ryushare uploaded keep2share

HD Teens Sex Tube Videos XxX 2706

Chelsy Sun & Thomas Lee – Play With Me ryushare uploaded keep2share

Chelsy Sun & Thomas Lee – Play With Me

vergen xxx hd ryushare uploaded keep2share

vergen xxx hd

Young Virgin Pussy Teen Fuck Tube 4403 ryushare uploaded keep2share

Young Virgin Pussy Teen Fuck Tube 4403

Natasha White And Dakota Skye ryushare uploaded keep2share

Natasha White And Dakota Skye

1By-Day.com Danika – Undercover Banana ryushare uploaded keep2share

1By-Day.com Danika – Undercover Banana

High Definition Movies on HD 1894 ryushare uploaded keep2share

High Definition Movies on HD 1894

Angela & Lindsey A Threesome Date ryushare uploaded keep2share

Angela & Lindsey A Threesome Date

High Definition Movies on HD 3938 ryushare uploaded keep2share

High Definition Movies on HD 3938

Young Virgin Pussy Teen Fuck Tube 225554 ryushare uploaded keep2share

Young Virgin Pussy Teen Fuck Tube 225554

Janice Griffith – Fucking Her Right ryushare uploaded keep2share

Janice Griffith – Fucking Her Right

pornstar young pornstar 226548 ryushare uploaded keep2share

pornstar young pornstar 226548

Porno movies young teens lesbian 5245 ryushare uploaded keep2share

Porno movies young teens lesbian 5245

Good Teen Tube Sexy Young Naked Girls Movies 2535 ryushare uploaded keep2share

Good Teen Tube Sexy Young Naked Girls Movies 2535

sexs 18 hd indir 226449 ryushare uploaded keep2share

sexs 18 hd indir 226449

Movies Young legal porn 5451 ryushare uploaded keep2share

Movies Young legal porn 5451

bbb hd sex 226562 ryushare uploaded keep2share

bbb hd sex 226562

HQ Sex Movies Download 1511 ryushare uploaded keep2share

HQ Sex Movies Download 1511

Wow Porn Movies download) 5319 ryushare uploaded keep2share

Wow Porn Movies download) 5319

Tube xxx 224727 ryushare uploaded keep2share

Tube xxx 224727

xxxx clips hd ryushare uploaded keep2share

xxxx clips hd

Teen porn xxx 224836 ryushare uploaded keep2share

Teen porn xxx 224836

Amarna Miller & Juan Lucho – Que Es La Pasion ryushare uploaded keep2share

Amarna Miller & Juan Lucho – Que Es La Pasion

HD Teen Sex Tube 1160 ryushare uploaded keep2share

HD Teen Sex Tube 1160

Teen Sex Movies 2192 ryushare uploaded keep2share

Teen Sex Movies 2192

xxxbf moved ryushare uploaded keep2share

xxxbf moved

College Teen Sex 2344 ryushare uploaded keep2share

College Teen Sex 2344

Report broken links / Post a comment

You must be logged in to post a comment.



General
Complete name : D:hd pornstars teens ryushare.com uploaded.net keep2share.cc fileom.com download porn movies clips DNTGNJlc.mp4
Format : MPEG-4
Format profile : Base Media
Codec ID : isom
File size : 441 MiB
Duration : 19mn 44s
Overall bit rate mode : Variable
Overall bit rate : 3 127 Kbps
Writing application : Lavf55.12.100

Video
ID : 1
Format : AVC
Format/Info : Advanced Video Codec
Format profile : High@L3.1
Format settings, CABAC : Yes
Format settings, ReFrames : 5 frames
Codec ID : avc1
Codec ID/Info : Advanced Video Coding
Duration : 19mn 44s
Bit rate : 2 988 Kbps
Width : 1 280 pixels
Height : 720 pixels
Display aspect ratio : 16:9
Frame rate mode : Constant
Frame rate : 29.970 fps
Color space : YUV
Chroma subsampling : 4:2:0
Bit depth : 8 bits
Scan type : Progressive
Bits/(Pixel*Frame) : 0.108
Stream size : 422 MiB (96%)
Writing library : x264 core 138
Encoding settings : cabac=1 / ref=5 / deblock=1:-1:-1 / analyse=0x3:0x113 / me=umh / subme=8 / psy=1 / psy_rd=1.00:0.15 / mixed_ref=1 / me_range=16 / chroma_me=1 / trellis=1 / 8x8dct=1 / cqm=0 / deadzone=21,11 / fast_pskip=1 / chroma_qp_offset=-3 / threads=8 / lookahead_threads=1 / sliced_threads=0 / nr=0 / decimate=1 / interlaced=0 / bluray_compat=0 / constrained_intra=0 / bframes=3 / b_pyramid=2 / b_adapt=2 / b_bias=0 / direct=3 / weightb=1 / open_gop=0 / weightp=2 / keyint=250 / keyint_min=25 / scenecut=40 / intra_refresh=0 / rc_lookahead=50 / rc=crf / mbtree=1 / crf=20.0 / qcomp=0.60 / qpmin=0 / qpmax=69 / qpstep=4 / ip_ratio=1.40 / aq=1:1.00
Language : Russian

Audio
ID : 2
Format : AAC
Format/Info : Advanced Audio Codec
Format profile : LC
Codec ID : 40
Duration : 19mn 44s
Bit rate mode : Variable
Bit rate : 132 Kbps
Maximum bit rate : 192 Kbps
Channel(s) : 2 channels
Channel positions : Front: L R
Sampling rate : 44.1 KHz
Compression mode : Lossy
Stream size : 18.4 MiB (4%)
Language : Russian

hd pornstars teens ryushare.com uploaded.net keep2share.cc fileom.com download porn movies clips