Teen Tits Tube, Young Girls Porn Videos 3923

Izzy Delphine, Michelle, Caroline -The Big AdventureWowGirls.com Vanda, Violette – Ill Teach You

Posted in HD Porn, Pornstar, Sex Movies, Teen | 21465 Views |


Rate this girl !!!




cover\r\n\r\n(WowGirls) Linda S – YES Girl\r\n\r\n1920x1080p / MP4 / 650.03 MB\r\n\r\nscreens



DOWNLOAD

Keep2share.cc - Uploaded.net - Openload.co - Rapidu.net


http://fileom.com/c25ey9ooil12/Y.E.S_G.ir.l_H.D10.8.0.mp4.html
http://k2s.cc/file/6d117b5851944/Y.E.S_G.ir.l_H.D10.8.0.mp4
http://ryushare.com/nhosl6cbbsdd/Y.E.S_G.ir.l_H.D10.8.0.mp4
http://ul.to/8coouq7s/Y.E.S_G.ir.l_H.D10.8.0.mp4


Premium here:
uploaded.net
keep2share.cc
rapidu.net.cc


Teens related to Teen Tits Tube, Young Girls Porn Videos 3923


1080p pornstar 226032 ryushare uploaded keep2share

1080p pornstar 226032

Teen 18 Porn XXX Clips Naked 1367 ryushare uploaded keep2share

Teen 18 Porn XXX Clips Naked 1367

Nice To Meet You ryushare uploaded keep2share

Nice To Meet You

Teenies Videos – Teen Porn, Teen Sex, XXX Free Videos 2957 ryushare uploaded keep2share

Teenies Videos – Teen Porn, Teen Sex, XXX Free Videos 2957

Teen Sex Porn Videos Free Nude Teens 3671 ryushare uploaded keep2share

Teen Sex Porn Videos Free Nude Teens 3671

HD teen sex tube 4210 ryushare uploaded keep2share

HD teen sex tube 4210

Teen porn movies 225157 ryushare uploaded keep2share

Teen porn movies 225157

Orgy with young teens ryushare uploaded keep2share

Orgy with young teens

sex pussy hd photos ryushare uploaded keep2share

sex pussy hd photos

Teen Tits Tube, Young Girls Porn Videos 6209 ryushare uploaded keep2share

Teen Tits Tube, Young Girls Porn Videos 6209

xxx hd virgin video downloed com 226500 ryushare uploaded keep2share

xxx hd virgin video downloed com 226500

worldsex com mp4 hd clip ryushare uploaded keep2share

worldsex com mp4 hd clip

Hd quality – Teen sex video 1289 ryushare uploaded keep2share

Hd quality – Teen sex video 1289

Free Direct Download hd romantic porn movies ryushare uploaded keep2share

Free Direct Download hd romantic porn movies

HD Porn Teen Sex Videos 1479 ryushare uploaded keep2share

HD Porn Teen Sex Videos 1479

Teen 18 Porn XXX Clips Naked 3465 ryushare uploaded keep2share

Teen 18 Porn XXX Clips Naked 3465

Jassie Gold – Take Your Tisme / all sex ryushare uploaded keep2share

Jassie Gold – Take Your Tisme / all sex

College Teen Sex 224724 ryushare uploaded keep2share

College Teen Sex 224724

Sweet Teen Porn – Young Porn Videos 3447 ryushare uploaded keep2share

Sweet Teen Porn – Young Porn Videos 3447

sex hd teen xxxxx 18 226086 ryushare uploaded keep2share

sex hd teen xxxxx 18 226086

Young xxx 224648 ryushare uploaded keep2share

Young xxx 224648

young prom xxx sex video hd download ryushare uploaded keep2share

young prom xxx sex video hd download

hd porn videos in low size download free 226092 ryushare uploaded keep2share

hd porn videos in low size download free 226092

College Teen Sex 5006 ryushare uploaded keep2share

College Teen Sex 5006

Sweet Teen Porn – Young Porn Videos 225837 ryushare uploaded keep2share

Sweet Teen Porn – Young Porn Videos 225837

Www porn movie mkv download com 226307 ryushare uploaded keep2share

Www porn movie mkv download com 226307

Brandy Naughty – First Time Auditions ryushare uploaded keep2share

Brandy Naughty – First Time Auditions

xxxvideo s HD com 226265 ryushare uploaded keep2share

xxxvideo s HD com 226265

High Definition Movies on HD Teen Porn XXX Tube 3652 ryushare uploaded keep2share

High Definition Movies on HD Teen Porn XXX Tube 3652

hd xxx teens virgintiy videos free download 226703 ryushare uploaded keep2share

hd xxx teens virgintiy videos free download 226703

hd sex videos 1080p download for pc ryushare uploaded keep2share

hd sex videos 1080p download for pc

Teens 1080p hd porn 4179 ryushare uploaded keep2share

Teens 1080p hd porn 4179

21Natural hd teen free ryushare uploaded keep2share

21Natural hd teen free

Squirters Juice Bar Carla Cox ryushare uploaded keep2share

Squirters Juice Bar Carla Cox

apetubegirls ryushare uploaded keep2share

apetubegirls

Report broken links / Post a comment

You must be logged in to post a comment.



General\r\nComplete name : D:hd tube amateur porn young girls sex direct download online movies clips\r\nryushare.com uploaded.net keep2share.cc fileom.com streamcloud.eu allmyvideos.net ul.to download porn movies clipYES_Girl_HD1080.mp4\r\nFormat : MPEG-4\r\nFormat profile : Base Media\r\nCodec ID : isom\r\nFile size : 650 MiB\r\nDuration : 20mn 10s\r\nOverall bit rate mode : Variable\r\nOverall bit rate : 4 504 Kbps\r\nWriting application : Lavf55.12.100\r\n\r\nVideo\r\nID : 1\r\nFormat : AVC\r\nFormat/Info : Advanced Video Codec\r\nFormat profile : High@L5.0\r\nFormat settings, CABAC : Yes\r\nFormat settings, ReFrames : 5 frames\r\nCodec ID : avc1\r\nCodec ID/Info : Advanced Video Coding\r\nDuration : 20mn 10s\r\nBit rate : 4 385 Kbps\r\nWidth : 1 920 pixels\r\nHeight : 1 080 pixels\r\nDisplay aspect ratio : 16:9\r\nFrame rate mode : Constant\r\nFrame rate : 29.970 fps\r\nColor space : YUV\r\nChroma subsampling : 4:2:0\r\nBit depth : 8 bits\r\nScan type : Progressive\r\nBits/(Pixel*Frame) : 0.071\r\nStream size : 633 MiB (97%)\r\nWriting library : x264 core 138\r\nEncoding settings : cabac=1 / ref=5 / deblock=1:-1:-1 / analyse=0x3:0x113 / me=umh / subme=8 / psy=1 / psy_rd=1.00:0.15 / mixed_ref=1 / me_range=16 / chroma_me=1 / trellis=1 / 8x8dct=1 / cqm=0 / deadzone=21,11 / fast_pskip=1 / chroma_qp_offset=-3 / threads=8 / lookahead_threads=1 / sliced_threads=0 / nr=0 / decimate=1 / interlaced=0 / bluray_compat=0 / constrained_intra=0 / bframes=3 / b_pyramid=2 / b_adapt=2 / b_bias=0 / direct=3 / weightb=1 / open_gop=0 / weightp=2 / keyint=250 / keyint_min=25 / scenecut=40 / intra_refresh=0 / rc_lookahead=50 / rc=crf / mbtree=1 / crf=20.0 / qcomp=0.60 / qpmin=0 / qpmax=69 / qpstep=4 / ip_ratio=1.40 / aq=1:1.00\r\nLanguage : Russian\r\n\r\nAudio\r\nID : 2\r\nFormat : AAC\r\nFormat/Info : Advanced Audio Codec\r\nFormat profile : LC\r\nCodec ID : 40\r\nDuration : 20mn 10s\r\nBit rate mode : Variable\r\nBit rate : 110 Kbps\r\nMaximum bit rate : 192 Kbps\r\nChannel(s) : 2 channels\r\nChannel positions : Front: L R\r\nSampling rate : 44.1 KHz\r\nCompression mode : Lossy\r\nStream size : 15.9 MiB (2%)\r\nLanguage : Russian\r\n\r\n\r\n\r\nUPLOADED / RYUSHARE / FILEOM / KEEP2SHARE\r\n\r\nhd tube amateur porn young girls sex direct download online movies clips\r\nryushare.com uploaded.net keep2share.cc fileom.com streamcloud.eu allmyvideos.net ul.to download porn movies clip