Teenage Fuck Clips 3782

Adult Hardcore XXX Sex Videos 3788Teenage Fuck Clips 3779

Posted in HD Porn, Pornstar, Sex Movies, Teen | 10682 Views |


Rate this girl !!!




cover

\r\n

1920x1080p / MP4 / 932.98 MB

\r\n

RAPIDGATOR / UPLOADED / UPLOADABLE

\r\n \r\n

SCREENSHOTS:

\r\n

screens



DOWNLOAD

Keep2share.cc - Uploaded.net - Openload.co - Rapidu.net


http://fileom.com/swz93k330vfz/L.M_sa.m.my_ja.mes_s.e.x_gl.a.sses_10.80.mp4.html
http://k2s.cc/file/4ba47a0366325/L.M_sa.m.my_ja.mes_s.e.x_gl.a.sses_10.80.mp4
http://ryushare.com/2vkj4vqj8o6i/L.M_sa.m.my_ja.mes_s.e.x_gl.a.sses_10.80.mp4
http://uploaded.net/file/np6f6z25


Premium here:
uploaded.net
keep2share.cc
rapidu.net.cc


Teens related to Teenage Fuck Clips 3782


Teen Sex Movies 4083 ryushare uploaded keep2share

Teen Sex Movies 4083

Watch Teen Sex Videos HD 1226 ryushare uploaded keep2share

Watch Teen Sex Videos HD 1226

Download young porn sex 225038 ryushare uploaded keep2share

Download young porn sex 225038

Teen Sex Movies 1521 ryushare uploaded keep2share

Teen Sex Movies 1521

Www hd xvideos download in 225992 ryushare uploaded keep2share

Www hd xvideos download in 225992

Young teens tube hot girls free porn video 2600 ryushare uploaded keep2share

Young teens tube hot girls free porn video 2600

Watch Teen Sex Videos HD 225525 ryushare uploaded keep2share

Watch Teen Sex Videos HD 225525

Watch Teen Sex Videos HD 4869 ryushare uploaded keep2share

Watch Teen Sex Videos HD 4869

Sweet Teen Porn – Young Porn Videos 224812 ryushare uploaded keep2share

Sweet Teen Porn – Young Porn Videos 224812

Hardcore Sex Hub 225185 ryushare uploaded keep2share

Hardcore Sex Hub 225185

Young teens tube hot girls free porn video 2828 ryushare uploaded keep2share

Young teens tube hot girls free porn video 2828

Teen xxx sex hd 224286 ryushare uploaded keep2share

Teen xxx sex hd 224286

Teen Sex Porn Videos Free Nude Teens 3009 ryushare uploaded keep2share

Teen Sex Porn Videos Free Nude Teens 3009

Tube Young Sex 5310 ryushare uploaded keep2share

Tube Young Sex 5310

LegalPorno.com] Rebecca Black takes 3 cocks in ryushare uploaded keep2share

LegalPorno.com] Rebecca Black takes 3 cocks in

pornosexxx hd 226414 ryushare uploaded keep2share

pornosexxx hd 226414

Free Teen Porn Videos at Teen Sex Tube XXX 3801 ryushare uploaded keep2share

Free Teen Porn Videos at Teen Sex Tube XXX 3801

HD Teen Sex Tube 225528 ryushare uploaded keep2share

HD Teen Sex Tube 225528

Girls sex art hd teens videos 225859 ryushare uploaded keep2share

Girls sex art hd teens videos 225859

Hot download sex girls movies 5611 ryushare uploaded keep2share

Hot download sex girls movies 5611

Teen Sex Videos Big Tits Amateur 4768 ryushare uploaded keep2share

Teen Sex Videos Big Tits Amateur 4768

Teen Sex Videos Tube Movies 3048 ryushare uploaded keep2share

Teen Sex Videos Tube Movies 3048

HD Porn Teen Sex Videos 4070 ryushare uploaded keep2share

HD Porn Teen Sex Videos 4070

Tube Young Sex 4191 ryushare uploaded keep2share

Tube Young Sex 4191

Vera – Fuck Me, My Love! ryushare uploaded keep2share

Vera – Fuck Me, My Love!

www xxx hd videos English com down 226494 ryushare uploaded keep2share

www xxx hd videos English com down 226494

Hd quality – Teen sex video 5300 ryushare uploaded keep2share

Hd quality – Teen sex video 5300

Hardcore Sex Hub 3273 ryushare uploaded keep2share

Hardcore Sex Hub 3273

TeensAnalyzed – Nanette – Taking You Closer To Anal [FullHD 1080p] ryushare uploaded keep2share

TeensAnalyzed – Nanette – Taking You Closer To Anal [FullHD 1080p]

Milagres – A Cool Tool For Me ryushare uploaded keep2share

Milagres – A Cool Tool For Me

Castingcouch-X.com Megan Rain ryushare uploaded keep2share

Castingcouch-X.com Megan Rain

Ivy & Uma Zen – Two Girls ryushare uploaded keep2share

Ivy & Uma Zen – Two Girls

Hot Teen Sex HD videos 2905 ryushare uploaded keep2share

Hot Teen Sex HD videos 2905

Teen porn xxx 225534 ryushare uploaded keep2share

Teen porn xxx 225534

Teen Sex Movies 1772 ryushare uploaded keep2share

Teen Sex Movies 1772

Report broken links / Post a comment

You must be logged in to post a comment.



General\r\nComplete name : D:hd pornstars teens ryushare.com uploaded.net keep2share.cc fileom.com streamcloud.eu allmyvideos.net ul.to download porn movies clips L.M_sa.m.my_ja.mes_s.e.x_gl.a.sses_10.80.mp4\r\nFormat : MPEG-4\r\nFormat profile : Base Media\r\nCodec ID : isom\r\nFile size : 933 MiB\r\nDuration : 21mn 19s\r\nOverall bit rate mode : Variable\r\nOverall bit rate : 6 119 Kbps\r\nWriting application : Lavf55.33.101\r\n\r\nVideo\r\nID : 1\r\nFormat : MPEG-4 Visual\r\nFormat profile : Simple@L1\r\nFormat settings, BVOP : No\r\nFormat settings, QPel : No\r\nFormat settings, GMC : No warppoints\r\nFormat settings, Matrix : Default (H.263)\r\nCodec ID : 20\r\nDuration : 21mn 18s\r\nBit rate mode : Variable\r\nBit rate : 5 987 Kbps\r\nMaximum bit rate : 8 500 Kbps\r\nWidth : 1 920 pixels\r\nHeight : 1 080 pixels\r\nDisplay aspect ratio : 16:9\r\nFrame rate mode : Constant\r\nFrame rate : 23.976 fps\r\nColor space : YUV\r\nChroma subsampling : 4:2:0\r\nBit depth : 8 bits\r\nScan type : Progressive\r\nCompression mode : Lossy\r\nBits/(Pixel*Frame) : 0.120\r\nStream size : 913 MiB (98%)\r\nWriting library : Lavc55.52.102\r\nLanguage : English\r\n\r\nAudio\r\nID : 2\r\nFormat : AAC\r\nFormat/Info : Advanced Audio Codec\r\nFormat profile : LC\r\nCodec ID : 40\r\nDuration : 21mn 19s\r\nBit rate mode : Constant\r\nBit rate : 128 Kbps\r\nChannel(s) : 2 channels\r\nChannel positions : Front: L R\r\nSampling rate : 48.0 KHz\r\nCompression mode : Lossy\r\nStream size : 19.5 MiB (2%)\r\nLanguage : English\r\n\r\n