Teenies Videos – Teen Porn, Teen Sex, XXX Free Videos 1152

Join The Fun - WowGirlsGirlsDoPorn - 19 Years Old Girl - Legal Teens

Posted in HD Porn, Pornstar, Sex Movies, Teen | 12207 Views |


Rate this girl !!!




\r\n\r\n\r\n Link(445 Mb||19:26||1280*720||MP4) \r\n\r\n 



DOWNLOAD

Keep2share.cc - Uploaded.net - Openload.co - Rapidu.net


http://ryushare.com/di4bv42bpoda/G.N.DRTYlr.mp4
http://k2s.cc/file/009840548efbd/G.N.DRTYlr.mp4
http://ul.to/mj5gyoxy/G.N.DRTYlr.rar
http://ul.to/pb4g8vox


Premium here:
uploaded.net
keep2share.cc
rapidu.net.cc

Teens related to Teenies Videos – Teen Porn, Teen Sex, XXX Free Videos 1152


Hd quality – Teen sex video 225531 ryushare uploaded keep2share

Hd quality – Teen sex video 225531

Hot Teen Sex 224365 ryushare uploaded keep2share

Hot Teen Sex 224365

8 Teen XXX – Teen Sex 1386 ryushare uploaded keep2share

8 Teen XXX – Teen Sex 1386

Watch Teen Sex Videos HD 225525 ryushare uploaded keep2share

Watch Teen Sex Videos HD 225525

Kiki Vidis ryushare uploaded keep2share

Kiki Vidis

Teen porn movies 4620 ryushare uploaded keep2share

Teen porn movies 4620

Beautifull 18 years girl amateur 4791 ryushare uploaded keep2share

Beautifull 18 years girl amateur 4791

Young legal porn clips 3535 ryushare uploaded keep2share

Young legal porn clips 3535

Girls do porn in HD 225281 ryushare uploaded keep2share

Girls do porn in HD 225281

[JulesJordan.com] Karmen Karma (Karmen Karma’s Wet Ass Devours A Cock / 03.02.2016) [2016 г., Anal, Big Butts, Big Tits, Blowjobs, Brunettes, Facial, Tattoo, 720p] ryushare uploaded keep2share

[JulesJordan.com] Karmen Karma (Karmen Karma’s Wet Ass Devours A Cock / 03.02.2016) [2016 г., Anal, Big Butts, Big Tits, Blowjobs, Brunettes, Facial, Tattoo, 720p]

HQ xxx videos in free download ryushare uploaded keep2share

HQ xxx videos in free download

Hd quality – Teen sex video 1189 ryushare uploaded keep2share

Hd quality – Teen sex video 1189

Young teens tube hot girls free porn video 2828 ryushare uploaded keep2share

Young teens tube hot girls free porn video 2828

Fresh Teen Videos 225576 ryushare uploaded keep2share

Fresh Teen Videos 225576

ClubSeventeen.com home alone teens 02 06 ryushare uploaded keep2share

ClubSeventeen.com home alone teens 02 06

High Definition Movies on HD Teen Porn XXX Tube 1229 ryushare uploaded keep2share

High Definition Movies on HD Teen Porn XXX Tube 1229

HD Porn Teen Sex Videos 1629 ryushare uploaded keep2share

HD Porn Teen Sex Videos 1629

TrickyMasseur.com Anjelica ryushare uploaded keep2share

TrickyMasseur.com Anjelica

Wow porn tube movies 224880 ryushare uploaded keep2share

Wow porn tube movies 224880

ful hd porn girls 226184 ryushare uploaded keep2share

ful hd porn girls 226184

Her Sweet Hand – Beatrice ryushare uploaded keep2share

Her Sweet Hand – Beatrice

Good Teen Tube Sexy Young Naked Girls Movies 2541 ryushare uploaded keep2share

Good Teen Tube Sexy Young Naked Girls Movies 2541

Dreams-HD.com Nikka ryushare uploaded keep2share

Dreams-HD.com Nikka

Victoria Paradice – Where Did That Ass Come From ryushare uploaded keep2share

Victoria Paradice – Where Did That Ass Come From

HD Porn Teen Sex Videos 2783 ryushare uploaded keep2share

HD Porn Teen Sex Videos 2783

Wow girls hd porn teens 225278 ryushare uploaded keep2share

Wow girls hd porn teens 225278

Girls sex art hd teens videos 225147 ryushare uploaded keep2share

Girls sex art hd teens videos 225147

ساريه السواس افلامsexx sexx xxxxxx xxx 226756 ryushare uploaded keep2share

ساريه السواس افلامsexx sexx xxxxxx xxx 226756

Girls sex art hd teens videos 225709 ryushare uploaded keep2share

Girls sex art hd teens videos 225709

Hd blonde bang 226409 ryushare uploaded keep2share

Hd blonde bang 226409

College Teen Sex 224724 ryushare uploaded keep2share

College Teen Sex 224724

Teen Sex Movies Young Porn Tube Vids 5394 ryushare uploaded keep2share

Teen Sex Movies Young Porn Tube Vids 5394

Sweet Teen Porn – Young Porn Videos 224912 ryushare uploaded keep2share

Sweet Teen Porn – Young Porn Videos 224912

Lola Taylor – Hardcore ryushare uploaded keep2share

Lola Taylor – Hardcore

HD Porn Video 224842 ryushare uploaded keep2share

HD Porn Video 224842

Report broken links / Post a comment

You must be logged in to post a comment.



General\r\nComplete name : D:HD TeenMania Porn Sex videos.xxx porn free clips movies downloads sex young teens legal 18 17 16 tube online fucking.mp4\r\nFormat : MPEG-4\r\nFormat profile : Base Media\r\nCodec ID : isom\r\nFile size : 445 MiB\r\nDuration : 19mn 26s\r\nOverall bit rate mode : Variable\r\nOverall bit rate : 3 202 Kbps\r\nEncoded date : UTC 2013-09-24 21:45:06\r\nTagged date : UTC 2013-09-24 21:45:06\r\n\r\nVideo\r\nID : 1\r\nFormat : AVC\r\nFormat/Info : Advanced Video Codec\r\nFormat profile : Baseline@L3.1\r\nFormat settings, CABAC : No\r\nFormat settings, ReFrames : 3 frames\r\nCodec ID : avc1\r\nCodec ID/Info : Advanced Video Coding\r\nDuration : 19mn 26s\r\nBit rate : 3 072 Kbps\r\nMaximum bit rate : 6 676 Kbps\r\nWidth : 1 280 pixels\r\nHeight : 720 pixels\r\nDisplay aspect ratio : 16:9\r\nFrame rate mode : Constant\r\nFrame rate : 25.000 fps\r\nColor space : YUV\r\nChroma subsampling : 4:2:0\r\nBit depth : 8 bits\r\nScan type : Progressive\r\nBits/(Pixel*Frame) : 0.133\r\nStream size : 427 MiB (96%)\r\nWriting library : Zencoder Video Encoding System\r\nEncoded date : UTC 2013-09-24 21:33:27\r\nTagged date : UTC 2013-09-24 21:45:07\r\n\r\nAudio\r\nID : 2\r\nFormat : AAC\r\nFormat/Info : Advanced Audio Codec\r\nFormat profile : LC\r\nCodec ID : 40\r\nDuration : 19mn 26s\r\nBit rate mode : Variable\r\nBit rate : 128 Kbps\r\nMaximum bit rate : 146 Kbps\r\nChannel(s) : 2 channels\r\nChannel positions : Front: L R\r\nSampling rate : 48.0 KHz\r\nCompression mode : Lossy\r\nStream size : 17.8 MiB (4%)\r\nEncoded date : UTC 2013-09-24 21:45:07\r\nTagged date : UTC 2013-09-24 21:45:07\r\n\r\n