Teens in Porno young porn videos and free teen sex 1672

Teen porn movies 1676Hardcore Sex Hub 1665

Posted in Amateur, HD Porn, Sex Movies, Teen | 8916 Views |


Rate this girl !!!




\r\n\r\n\r\n\r\n\r\nhttp://img102.imagetwist.com/i/05254/00wkbs6c8201.jpeg\r\n\r\n Link(687 Mb||45:01||1024*576||MP4)



DOWNLOAD

Keep2share.cc - Uploaded.net - Openload.co - Rapidu.net


http://keep2share.cc/file/1f63959c2add1
http://ryushare.com/4mtmp11wjjnx/PRZDNls.rar
http://ul.to/imr0cmoa


Premium here:
uploaded.net
keep2share.cc
rapidu.net.cc


Teens related to Teens in Porno young porn videos and free teen sex 1672


Linda S – I’Am Your Woman ryushare uploaded keep2share

Linda S – I’Am Your Woman

HD Teen Sex Tube 224893 ryushare uploaded keep2share

HD Teen Sex Tube 224893

Monroe – Sweet And Tender ryushare uploaded keep2share

Monroe – Sweet And Tender

Girls do porn in HD 224007 ryushare uploaded keep2share

Girls do porn in HD 224007

8 Teen XXX – Teen Sex 5056 ryushare uploaded keep2share

8 Teen XXX – Teen Sex 5056

Hot brunette blowjob ryushare uploaded keep2share

Hot brunette blowjob

hd porn moives for pc ryushare uploaded keep2share

hd porn moives for pc

HD Porn Teen Sex Videos 4070 ryushare uploaded keep2share

HD Porn Teen Sex Videos 4070

free porn hot movies downld in hd avi ryushare uploaded keep2share

free porn hot movies downld in hd avi

Teen porn movies 3659 ryushare uploaded keep2share

Teen porn movies 3659

x-art no turning back part two video 226470 ryushare uploaded keep2share

x-art no turning back part two video 226470

Fucked by two cocks in all holes ryushare uploaded keep2share

Fucked by two cocks in all holes

Young teens tube hot girls free porn video 224021 ryushare uploaded keep2share

Young teens tube hot girls free porn video 224021

Hot Teen Sex 2988 ryushare uploaded keep2share

Hot Teen Sex 2988

Teens in Porno young porn videos and free teen sex 225592 ryushare uploaded keep2share

Teens in Porno young porn videos and free teen sex 225592

www full hd video fucking com ryushare uploaded keep2share

www full hd video fucking com

SONJA N – fuck my natural hairy pussy ryushare uploaded keep2share

SONJA N – fuck my natural hairy pussy

Wow girls porn teens 3033 ryushare uploaded keep2share

Wow girls porn teens 3033

Two Teasing Tongues 9 ryushare uploaded keep2share

Two Teasing Tongues 9

Watch Teen Sex Videos HD 225525 ryushare uploaded keep2share

Watch Teen Sex Videos HD 225525

Wow girls porn teens 4237 ryushare uploaded keep2share

Wow girls porn teens 4237

HD Sex 18- YEX XXX ryushare uploaded keep2share

HD Sex 18- YEX XXX

hd hq sexy vefeos ryushare uploaded keep2share

hd hq sexy vefeos

Anabelle Pync – Anabelle’s sensual tease – 2014 ryushare uploaded keep2share

Anabelle Pync – Anabelle’s sensual tease – 2014

sixe xxx hq 226055 ryushare uploaded keep2share

sixe xxx hq 226055

kHz xxx sex ryushare uploaded keep2share

kHz xxx sex

www sex all world hd com 226654 ryushare uploaded keep2share

www sex all world hd com 226654

Russian amateur – Home Sex ryushare uploaded keep2share

Russian amateur – Home Sex

Download young porn sex 5145 ryushare uploaded keep2share

Download young porn sex 5145

Wow porn tube movies 224880 ryushare uploaded keep2share

Wow porn tube movies 224880

Young teens tube hot girls free porn video 224172 ryushare uploaded keep2share

Young teens tube hot girls free porn video 224172

Free High Quality Sex Movies 4635 ryushare uploaded keep2share

Free High Quality Sex Movies 4635

Gina Gerson – Date By The Pool ryushare uploaded keep2share

Gina Gerson – Date By The Pool

8teen sex free movies com ryushare uploaded keep2share

8teen sex free movies com

www xxx hd videos English com down 226494 ryushare uploaded keep2share

www xxx hd videos English com down 226494

Report broken links / Post a comment

You must be logged in to post a comment.



General\r\nComplete name : D:HD Teens Download Porn Sex clips movies Tube.xxxPRZDNlsPRZDNls.mp4\r\nFormat : MPEG-4\r\nFormat profile : Base Media / Version 2\r\nCodec ID : mp42\r\nFile size : 687 MiB\r\nDuration : 45mn 1s\r\nOverall bit rate : 2 132 Kbps\r\nEncoded date : UTC 2013-07-10 13:05:15\r\nTagged date : UTC 2013-07-10 13:06:16\r\n\r\nVideo\r\nID : 1\r\nFormat : AVC\r\nFormat/Info : Advanced Video Codec\r\nFormat profile : Baseline@L3.1\r\nFormat settings, CABAC : No\r\nFormat settings, ReFrames : 2 frames\r\nFormat settings, GOP : M=1, N=125\r\nCodec ID : avc1\r\nCodec ID/Info : Advanced Video Coding\r\nDuration : 45mn 1s\r\nBit rate : 2 000 Kbps\r\nWidth : 1 024 pixels\r\nHeight : 576 pixels\r\nDisplay aspect ratio : 16:9\r\nFrame rate mode : Constant\r\nFrame rate : 25.000 fps\r\nColor space : YUV\r\nChroma subsampling : 4:2:0\r\nBit depth : 8 bits\r\nScan type : Progressive\r\nBits/(Pixel*Frame) : 0.136\r\nStream size : 644 MiB (94%)\r\nTitle : Apple Video Mediensteuerung\r\nLanguage : English\r\nEncoded date : UTC 2013-07-10 13:05:13\r\nTagged date : UTC 2013-07-10 13:06:16\r\nColor primaries : BT.709\r\nTransfer characteristics : BT.709\r\nMatrix coefficients : BT.709\r\n\r\nAudio\r\nID : 2\r\nFormat : AAC\r\nFormat/Info : Advanced Audio Codec\r\nFormat profile : LC\r\nCodec ID : 40\r\nDuration : 45mn 1s\r\nBit rate mode : Constant\r\nBit rate : 128 Kbps\r\nChannel(s) : 2 channels\r\nChannel positions : Front: L R\r\nSampling rate : 48.0 KHz\r\nCompression mode : Lossy\r\nStream size : 41.2 MiB (6%)\r\nTitle : Apple Ton Mediensteuerung\r\nLanguage : English\r\nEncoded date : UTC 2013-07-10 13:05:13\r\nTagged date : UTC 2013-07-10 13:06:16\r\n\r\n