Teens in Porno young porn videos and free teen sex 1763

High Definition Movies on HD 1766Teen Sex Videos Tube Movies 1759

Posted in Amateur, HD Porn, Sex Movies, Teen, Threesome | 8152 Views |


Rate this girl !!!


(39 raters, 150 scores, average: 3.85 out of 5, 76.92%)

http://img102.imagetwist.com/i/05270/ry51zl2hyetu.jpeg

Link(901 Mb||25:24||1280*720||MP4)



DOWNLOAD

Keep2share.cc - Uploaded.net - Openload.co - Rapidu.net



Premium here:
uploaded.net
keep2share.cc
rapidu.net.cc


Teens related to Teens in Porno young porn videos and free teen sex 1763


Hd young videos 4536 ryushare uploaded keep2share

Hd young videos 4536

Teen Pornstars Orgy ryushare uploaded keep2share

Teen Pornstars Orgy

Susan Ayn ryushare uploaded keep2share

Susan Ayn

Tube xxx 225500 ryushare uploaded keep2share

Tube xxx 225500

film sexx japan hd mqnia 226026 ryushare uploaded keep2share

film sexx japan hd mqnia 226026

Wow girls porn teens 3033 ryushare uploaded keep2share

Wow girls porn teens 3033

romentic hd pornmovie download 226723 ryushare uploaded keep2share

romentic hd pornmovie download 226723

HD Teens Sex Tube Videos XxX 2388 ryushare uploaded keep2share

HD Teens Sex Tube Videos XxX 2388

The Tia Cyrus Tug Job Experience ryushare uploaded keep2share

The Tia Cyrus Tug Job Experience

Hot Teen Sex 4324 ryushare uploaded keep2share

Hot Teen Sex 4324

High Definition Movies on HD 1647 ryushare uploaded keep2share

High Definition Movies on HD 1647

HD sex movies downloads 2841 ryushare uploaded keep2share

HD sex movies downloads 2841

wow cum com hd 226397 ryushare uploaded keep2share

wow cum com hd 226397

Wow Girls Porn Clips download 224521 ryushare uploaded keep2share

Wow Girls Porn Clips download 224521

[AbbyWinters.com] Sasha R. ryushare uploaded keep2share

[AbbyWinters.com] Sasha R.

hd porn new breast 226190 ryushare uploaded keep2share

hd porn new breast 226190

sex hd romance 226550 ryushare uploaded keep2share

sex hd romance 226550

H D SEXI VIDEO com 226526 ryushare uploaded keep2share

H D SEXI VIDEO com 226526

Teen Sex Movies 223765 ryushare uploaded keep2share

Teen Sex Movies 223765

Young 720p hd porn 4917 ryushare uploaded keep2share

Young 720p hd porn 4917

Www teen77 com free dawonlorld ryushare uploaded keep2share

Www teen77 com free dawonlorld

Wow girls porn teens 4595 ryushare uploaded keep2share

Wow girls porn teens 4595

16 xxx ryushare uploaded keep2share

16 xxx

Sabrina L – Sabrina Flirting With Her Personal Trainer ryushare uploaded keep2share

Sabrina L – Sabrina Flirting With Her Personal Trainer

Kathia Nobili, Meg Magic – Low Self-Esteem ryushare uploaded keep2share

Kathia Nobili, Meg Magic – Low Self-Esteem

HD Porn Video 1701 ryushare uploaded keep2share

HD Porn Video 1701

Teen xxx sex hd 5239 ryushare uploaded keep2share

Teen xxx sex hd 5239

Teen Sex Porn Videos Free Nude Teens 4441 ryushare uploaded keep2share

Teen Sex Porn Videos Free Nude Teens 4441

Teenies Videos – Teen Porn, Teen Sex, XXX Free Videos 4123 ryushare uploaded keep2share

Teenies Videos – Teen Porn, Teen Sex, XXX Free Videos 4123

The best Teen sex 223940 ryushare uploaded keep2share

The best Teen sex 223940

Young teens tube hot girls free porn video 1296 ryushare uploaded keep2share

Young teens tube hot girls free porn video 1296

Free Young Porn Videos XXX Teen Porn 225792 ryushare uploaded keep2share

Free Young Porn Videos XXX Teen Porn 225792

HD Porn Teen Sex Videos 225563 ryushare uploaded keep2share

HD Porn Teen Sex Videos 225563

bb xxx hd vdeo free ryushare uploaded keep2share

bb xxx hd vdeo free

Wow Porn Movies download) 5319 ryushare uploaded keep2share

Wow Porn Movies download) 5319

Report broken links / Post a comment

You must be logged in to post a comment.



General
Complete name : D:HD Teens Download Porn Sex clips movies Tube.xxxDSMJNGrfDSMJNGrf.mp4
Format : MPEG-4
Format profile : Base Media
Codec ID : isom
File size : 901 MiB
Duration : 25mn 24s
Overall bit rate mode : Variable
Overall bit rate : 4 959 Kbps
Writing application : Lavf52.93.0

Video
ID : 1
Format : AVC
Format/Info : Advanced Video Codec
Format profile : High@L3.1
Format settings, CABAC : Yes
Format settings, ReFrames : 4 frames
Codec ID : avc1
Codec ID/Info : Advanced Video Coding
Duration : 25mn 24s
Bit rate : 4 800 Kbps
Width : 1 280 pixels
Height : 720 pixels
Display aspect ratio : 16:9
Frame rate mode : Constant
Frame rate : 29.970 fps
Color space : YUV
Chroma subsampling : 4:2:0
Bit depth : 8 bits
Scan type : Progressive
Bits/(Pixel*Frame) : 0.174
Stream size : 872 MiB (97%)
Writing library : x264 core 107
Encoding settings : cabac=1 / ref=3 / deblock=1:0:0 / analyse=0x3:0x113 / me=umh / subme=6 / psy=1 / psy_rd=1.00:0.00 / mixed_ref=1 / me_range=16 / chroma_me=1 / trellis=0 / 8x8dct=1 / cqm=0 / deadzone=21,11 / fast_pskip=1 / chroma_qp_offset=-2 / threads=1 / sliced_threads=0 / nr=0 / decimate=1 / interlaced=0 / constrained_intra=0 / bframes=2 / b_pyramid=2 / b_adapt=2 / b_bias=0 / direct=2 / weightb=1 / open_gop=0 / weightp=0 / keyint=30 / keyint_min=16 / scenecut=0 / intra_refresh=0 / rc_lookahead=30 / rc=abr / mbtree=1 / bitrate=4800 / ratetol=1.0 / qcomp=0.60 / qpmin=1 / qpmax=31 / qpstep=4 / ip_ratio=1.41 / aq=1:1.00
Language : English

Audio
ID : 2
Format : AAC
Format/Info : Advanced Audio Codec
Format profile : LC
Codec ID : 40
Duration : 25mn 24s
Bit rate mode : Variable
Bit rate : 152 Kbps
Channel(s) : 2 channels
Channel positions : Front: L R
Sampling rate : 44.1 KHz
Compression mode : Lossy
Stream size : 27.6 MiB (3%)
Language : English