Teens in Porno young porn videos and free teen sex 2151

Teen 18 Porn XXX Clips Naked 2154HD Teen Sex Tube 2148

Posted in Amateur, HD Porn, Sex Movies, Teen | 10467 Views |


Rate this girl !!!




\r\n\r\n6.jpeg\r\n\r\n Link(534 Mb||28:23||1280*720||WMV)



DOWNLOAD

Keep2share.cc - Uploaded.net - Openload.co - Rapidu.net


http://ryushare.com/f38htx505tb2/PSNHDKsh.wmv
http://ul.to/f7gmlwnt/PSNHDKsh.wmv
http://k2s.cc/file/be5d6cea451ff/PSNHDKsh.wmv


Premium here:
uploaded.net
keep2share.cc
rapidu.net.cc


Teens related to Teens in Porno young porn videos and free teen sex 2151


Sexart  – Carla Cox – The last night (Orgy) ryushare uploaded keep2share

Sexart – Carla Cox – The last night (Orgy)

Janna – Real Homemade Sex Tape ryushare uploaded keep2share

Janna – Real Homemade Sex Tape

Wow girls hd porn teens 5537 ryushare uploaded keep2share

Wow girls hd porn teens 5537

www free downloade hd world sex com 226164 ryushare uploaded keep2share

www free downloade hd world sex com 226164

Teen porn xxx 5502 ryushare uploaded keep2share

Teen porn xxx 5502

sixe xxx hq 226055 ryushare uploaded keep2share

sixe xxx hq 226055

College Teen Sex 224724 ryushare uploaded keep2share

College Teen Sex 224724

Teenage Fuck Clips 2332 ryushare uploaded keep2share

Teenage Fuck Clips 2332

saxy english xxx hd download ryushare uploaded keep2share

saxy english xxx hd download

Sasha Foxxx (Sasha’s edging orgasm control) ryushare uploaded keep2share

Sasha Foxxx (Sasha’s edging orgasm control)

www sexhdmovus com ryushare uploaded keep2share

www sexhdmovus com

www littile pussy hdmp4 com 226115 ryushare uploaded keep2share

www littile pussy hdmp4 com 226115

Teen porn movies 1909 ryushare uploaded keep2share

Teen porn movies 1909

Free Teen Porn Videos at Teen Sex Tube XXX 3711 ryushare uploaded keep2share

Free Teen Porn Videos at Teen Sex Tube XXX 3711

Young Sex Movies 224539 ryushare uploaded keep2share

Young Sex Movies 224539

Porno movies young teens lesbian 225217 ryushare uploaded keep2share

Porno movies young teens lesbian 225217

Gina Gerson – Date By The Pool ryushare uploaded keep2share

Gina Gerson – Date By The Pool

xxx full hq poharn vido downlod 226036 ryushare uploaded keep2share

xxx full hq poharn vido downlod 226036

VIOLA BAILEY’S and BEATA UNDINE – HARD – BED + 1 ryushare uploaded keep2share

VIOLA BAILEY’S and BEATA UNDINE – HARD – BED + 1

Teen porn movies 225220 ryushare uploaded keep2share

Teen porn movies 225220

Teenage Fuck Clips 225869 ryushare uploaded keep2share

Teenage Fuck Clips 225869

xxxsexHDvieo 226349 ryushare uploaded keep2share

xxxsexHDvieo 226349

HD Porn Videos 225354 ryushare uploaded keep2share

HD Porn Videos 225354

Wow porn tube movies 4671 ryushare uploaded keep2share

Wow porn tube movies 4671

no turning back now and part one in free x art 226020 ryushare uploaded keep2share

no turning back now and part one in free x art 226020

free download hd romance porn movie 226678 ryushare uploaded keep2share

free download hd romance porn movie 226678

Fucking outdoors ryushare uploaded keep2share

Fucking outdoors

pikworld hd sex com 226466 ryushare uploaded keep2share

pikworld hd sex com 226466

Nude Teens fucking hard 1617 ryushare uploaded keep2share

Nude Teens fucking hard 1617

[WowPorn.com] Daphne & Ria Sun (Thorough Fingers / ryushare uploaded keep2share

[WowPorn.com] Daphne & Ria Sun (Thorough Fingers /

X-art Scarlet Jayden Blindfold me part2 ryushare uploaded keep2share

X-art Scarlet Jayden Blindfold me part2

xvideohqdownlod 226407 ryushare uploaded keep2share

xvideohqdownlod 226407

Teenies Videos – Teen Porn, Teen Sex, XXX Free Videos 2957 ryushare uploaded keep2share

Teenies Videos – Teen Porn, Teen Sex, XXX Free Videos 2957

Wow porn tube movies 5353 ryushare uploaded keep2share

Wow porn tube movies 5353

Brunnete Pornstar Teenage Fucked ryushare uploaded keep2share

Brunnete Pornstar Teenage Fucked

Report broken links / Post a comment

You must be logged in to post a comment.



General\r\nComplete name : D:HD Teens Download Porn Sex clips movies TubePSNHDKsh.wmv\r\nFormat : Windows Media\r\nFile size : 534 MiB\r\nDuration : 28mn 23s\r\nOverall bit rate mode : Constant\r\nOverall bit rate : 2 631 Kbps\r\nMaximum Overall bit rate : 2 651 Kbps\r\nEncoded date : UTC 2012-05-03 23:45:23.687\r\n\r\nVideo\r\nID : 2\r\nFormat : VC-1\r\nFormat profile : MP@HL\r\nCodec ID : WMV3\r\nCodec ID/Info : Windows Media Video 9\r\nCodec ID/Hint : WMV3\r\nDescription of the codec : Windows Media Video 9 - Professional\r\nDuration : 28mn 23s\r\nBit rate mode : Constant\r\nBit rate : 2 500 Kbps\r\nWidth : 1 280 pixels\r\nHeight : 720 pixels\r\nDisplay aspect ratio : 16:9\r\nFrame rate : 23.976 fps\r\nNominal frame rate : 29.970 fps\r\nColor space : YUV\r\nChroma subsampling : 4:2:0\r\nBit depth : 8 bits\r\nScan type : Progressive\r\nCompression mode : Lossy\r\nBits/(Pixel*Frame) : 0.113\r\nStream size : 508 MiB (95%)\r\n\r\nAudio\r\nID : 1\r\nFormat : WMA\r\nFormat version : Version 2\r\nCodec ID : 161\r\nCodec ID/Info : Windows Media Audio\r\nDescription of the codec : Windows Media Audio 9.2 - 128 kbps, 44 kHz, stereo 2-pass CBR\r\nDuration : 28mn 23s\r\nBit rate mode : Constant\r\nBit rate : 128 Kbps\r\nChannel(s) : 2 channels\r\nSampling rate : 44.1 KHz\r\nBit depth : 16 bits\r\nStream size : 26.0 MiB (5%)\r\n\r\n