Teeny Tini Striptease

Irina hot teenSara Luvv (Every Inch)

Posted in HD Porn, Sex Movies, Solo, Teen | Posted on 07-11-2013 | 15881 Views | FavoriteLoadingAdd to favorites

Rate this girl !!!



(30 raters, 121 scores, average: 4.03 out of 5, 80.67%)


[EuroTeenErotica.com.DDFProd.com]Teeny Tini Striptease (28.10.2013)[2013 Solo, Teen, Masturbation, Little Tits, Toys, CloseUp, 720p]

Teeny Tini Striptease

Teeny Tini Striptease

Teeny Tini Striptease

Teeny Tini Striptease

File: EuroTeenErotica-Tini-131028-720.mp4
Size: 998385617 bytes (952.13 MiB), duration: 00:16:15, avg.bitrate: 8192 kb/s
Audio: aac, 48000 Hz, 2 channels, s16, 189 kb/s (eng)
Video: h264, yuv420p, 1280×720, 7991 kb/s, 23.98 fps(r) (eng)




Premium here:
uploaded.net
keep2share.cc

Incoming search terms:

  • teenmania porn
  • teenylovers
  • tini porno
  • free youngporn video
  • Teeny Tini Striptease
  • porn young hd
  • Teen masturbation
  • teen striptease porn
  • porno tini
  • stripteas porn
  • teeny porno
  • porny tits
  • teen porn young
  • girlsdoporn ep 240
  • keep2share teen sex
  • keep2share teen bikini
  • teens masturbation
  • tini sex
  • teen strip sex
  • teen tini porn
  • porno teen maatrubation
  • tini sex hd
  • teen mastrubation
  • porny teens
  • striptease keep2share


Tags: , , , , , , , ,

Teens related to Teeny Tini Striptease


Comments (2)

Esta .muy rica

Como un yogurt de fresa, aimmm que rico…

Report broken links / Post a comment

You must be logged in to post a comment.



General
Complete name : H:HD TEENS PORN/DOWNLOAD/RYUSHARE/UPLOADED/KEEP2SHARE/TURBOBIT/XXXEuroTeenErotica-Tini-131028-720.mp4
Format : MPEG-4
Format profile : Base Media / Version 2
Codec ID : mp42
File size : 952 MiB
Duration : 16mn 15s
Overall bit rate mode : Variable
Overall bit rate : 8 185 Kbps
Encoded date : UTC 2013-10-25 11:21:11
Tagged date : UTC 2013-10-25 11:21:11
©TIM : 00:00:00:00
©TSC : 24000
©TSZ : 1001

Video
ID : 1
Format : AVC
Format/Info : Advanced Video Codec
Format profile : Main@L3.1
Format settings, CABAC : Yes
Format settings, ReFrames : 3 frames
Codec ID : avc1
Codec ID/Info : Advanced Video Coding
Duration : 16mn 15s
Bit rate mode : Variable
Bit rate : 8 000 Kbps
Width : 1 280 pixels
Height : 720 pixels
Display aspect ratio : 16:9
Frame rate mode : Constant
Frame rate : 23.976 fps
Standard : NTSC
Color space : YUV
Chroma subsampling : 4:2:0
Bit depth : 8 bits
Scan type : Progressive
Bits/(Pixel*Frame) : 0.362
Stream size : 930 MiB (98%)
Language : English
Encoded date : UTC 2013-10-25 11:21:11
Tagged date : UTC 2013-10-25 11:21:11

Audio
ID : 2
Format : AAC
Format/Info : Advanced Audio Codec
Format profile : LC
Codec ID : 40
Duration : 16mn 15s
Source duration : 16mn 15s
Bit rate mode : Variable
Bit rate : 192 Kbps
Maximum bit rate : 248 Kbps
Channel(s) : 2 channels
Channel positions : Front: L R
Sampling rate : 48.0 KHz
Compression mode : Lossy
Stream size : 22.0 MiB (2%)
Source stream size : 22.0 MiB (2%)
Language : English
Encoded date : UTC 2013-10-25 11:21:11
Tagged date : UTC 2013-10-25 11:21:11