The Tia Cyrus Tug Job Experience

Kathia Nobili, Meg Magic - Low Self-EsteemChristina Snow - NubilesFilms - Join In

Posted in Amateur, HD Porn, Sex Movies, Teen | 8889 Views |


Rate this girl !!!




[Tugjobs.com / BangBros.com] Tia Cyrus (The Tia Cyrus Tug Job Experience / hj12055 / 30.12.13) [2013, Amateur, Blowjob, Brunette, Cumshot, Handjob, Natural Tits, 720p]\r\n\r\npic\r\n\r\nDuration: 00:13:39\r\nDescription: This TugJobs update may just be one of my favorites, and all thanks to Tia Cyrus for being such a fucking hottie. This chick definitely looked like she knew what she was doing. Made me wish it was me she was jerking off. And there’s a little something something more for you guys, so hit that play button and have a monkey spanking good time. Peace!\r\nType HD video: 720p\r\nVideo Format: MP4\r\nVideo codec: H.264/AVC\r\nAudio codec: AAC\r\nVideo: MPEG4 Video (H264) 1280×720 29.97fps 2951kbps\r\nAudio: AAC 44100Hz stereo 64kbps\r\n\r\nhttp://www.hdteenmania.com/porn/uploads/2013/12/cc5c5800ccc997112b5fd20519d01b88.jpg



DOWNLOAD

Keep2share.cc - Uploaded.net - Openload.co - Rapidu.net


http://ryushare.com/cqceqnf7q1ip/hj12055_3000.mp4
http://turbobit.net/6f91m8dsr2ql.html
http://ul.to/ixky9c50


Premium here:
uploaded.net
keep2share.cc
rapidu.net.cc

Teens related to The Tia Cyrus Tug Job Experience


Teen Porn XXX Tube 224445 ryushare uploaded keep2share

Teen Porn XXX Tube 224445

Teen porn movies 225949 ryushare uploaded keep2share

Teen porn movies 225949

xxx video hd romantik downlod ryushare uploaded keep2share

xxx video hd romantik downlod

Teen Sex Porn Videos Free Nude Teens 224616 ryushare uploaded keep2share

Teen Sex Porn Videos Free Nude Teens 224616

HD Porn Videos 2925 ryushare uploaded keep2share

HD Porn Videos 2925

Hardcore sex videos in the high definition quality 2311 ryushare uploaded keep2share

Hardcore sex videos in the high definition quality 2311

Wow girls porn teens 3486 ryushare uploaded keep2share

Wow girls porn teens 3486

Sweet Teen Porn – Young Porn Videos 224270 ryushare uploaded keep2share

Sweet Teen Porn – Young Porn Videos 224270

www teen fuckhd image gallary com 226522 ryushare uploaded keep2share

www teen fuckhd image gallary com 226522

High Definition Movies on HD 4675 ryushare uploaded keep2share

High Definition Movies on HD 4675

College Teen Sex 3576 ryushare uploaded keep2share

College Teen Sex 3576

Young Virgin Pussy Teen Fuck Tube 4366 ryushare uploaded keep2share

Young Virgin Pussy Teen Fuck Tube 4366

HD Porn Videos 1376 ryushare uploaded keep2share

HD Porn Videos 1376

Watch Teen Sex Videos HD 4934 ryushare uploaded keep2share

Watch Teen Sex Videos HD 4934

[FTVGirls.com] 2016-10-07 – Eva & Violet Starr – College Girls In Love [Lesbo, Toys, Fisting, 1080p] ryushare uploaded keep2share

[FTVGirls.com] 2016-10-07 – Eva & Violet Starr – College Girls In Love [Lesbo, Toys, Fisting, 1080p]

21Naturals.com Alysa Gap ryushare uploaded keep2share

21Naturals.com Alysa Gap

antartika poeno sex 226048 ryushare uploaded keep2share

antartika poeno sex 226048

faapy sexyi x bideos hd 226060 ryushare uploaded keep2share

faapy sexyi x bideos hd 226060

Hd young videos 4049 ryushare uploaded keep2share

Hd young videos 4049

blowjob craving lips 226579 ryushare uploaded keep2share

blowjob craving lips 226579

Teen Sex Movies Young Porn Tube Vids 2930 ryushare uploaded keep2share

Teen Sex Movies Young Porn Tube Vids 2930

Teen porn xxx 5502 ryushare uploaded keep2share

Teen porn xxx 5502

Bella Baby 2013 – Facial Double Blowjob Cumshot ryushare uploaded keep2share

Bella Baby 2013 – Facial Double Blowjob Cumshot

Amateur Teen Sex 223903 ryushare uploaded keep2share

Amateur Teen Sex 223903

Free High Quality Sex Movies 3731 ryushare uploaded keep2share

Free High Quality Sex Movies 3731

Girls sex art hd teens videos 225744 ryushare uploaded keep2share

Girls sex art hd teens videos 225744

www xxx hb movi 226762 ryushare uploaded keep2share

www xxx hb movi 226762

Teen xxx sex hd 224286 ryushare uploaded keep2share

Teen xxx sex hd 224286

Our Kind Of Fun ryushare uploaded keep2share

Our Kind Of Fun

Young teens tube hot girls free porn video 1223 ryushare uploaded keep2share

Young teens tube hot girls free porn video 1223

www littile pussy hdmp4 com 226115 ryushare uploaded keep2share

www littile pussy hdmp4 com 226115

Emily – A date from sugar daddy sex chat ryushare uploaded keep2share

Emily – A date from sugar daddy sex chat

Nomi – Bikini Land ryushare uploaded keep2share

Nomi – Bikini Land

Teens 1080p hd porn 2520 ryushare uploaded keep2share

Teens 1080p hd porn 2520

18 xxx potn srx 226432 ryushare uploaded keep2share

18 xxx potn srx 226432

Report broken links / Post a comment

You must be logged in to post a comment.



General\r\nComplete name : D:hj12055_3000.mp4\r\nFormat : MPEG-4\r\nFormat profile : Base Media\r\nCodec ID : isom\r\nFile size : 298 MiB\r\nDuration : 13mn 39s\r\nOverall bit rate mode : Variable\r\nOverall bit rate : 3 051 Kbps\r\nEncoded date : UTC 2013-08-14 20:02:59\r\nTagged date : UTC 2013-08-14 20:02:59\r\nWriting application : Lavf53.32.100\r\n\r\nVideo\r\nID : 1\r\nFormat : AVC\r\nFormat/Info : Advanced Video Codec\r\nFormat profile : Main@L4.0\r\nFormat settings, CABAC : Yes\r\nFormat settings, ReFrames : 6 frames\r\nCodec ID : avc1\r\nCodec ID/Info : Advanced Video Coding\r\nDuration : 13mn 39s\r\nBit rate : 3 000 Kbps\r\nWidth : 1 280 pixels\r\nHeight : 720 pixels\r\nDisplay aspect ratio : 16:9\r\nFrame rate mode : Constant\r\nFrame rate : 29.970 fps\r\nColor space : YUV\r\nChroma subsampling : 4:2:0\r\nBit depth : 8 bits\r\nScan type : Progressive\r\nBits/(Pixel*Frame) : 0.109\r\nStream size : 290 MiB (97%)\r\nWriting library : x264 core 124 r2019+178 69a0443\r\nEncoding settings : cabac=1 / ref=6 / deblock=1:0:0 / analyse=0x1:0x111 / me=hex / subme=6 / psy=0 / mixed_ref=1 / me_range=16 / chroma_me=1 / trellis=1 / 8x8dct=0 / cqm=0 / deadzone=21,11 / fast_pskip=0 / chroma_qp_offset=0 / threads=12 / sliced_threads=0 / nr=0 / decimate=1 / interlaced=0 / bluray_compat=0 / constrained_intra=0 / bframes=3 / b_pyramid=2 / b_adapt=1 / b_bias=0 / direct=1 / weightb=1 / open_gop=0 / weightp=2 / keyint=60 / keyint_min=25 / scenecut=40 / intra_refresh=0 / rc_lookahead=40 / rc=2pass / mbtree=0 / bitrate=3000 / ratetol=1.0 / qcomp=0.60 / qpmin=10 / qpmax=51 / qpstep=4 / cplxblur=20.0 / qblur=0.5 / vbv_maxrate=3000 / vbv_bufsize=6000 / nal_hrd=none / ip_ratio=1.40 / pb_ratio=1.30 / aq=1:1.00\r\nLanguage : English\r\nEncoded date : UTC 2013-08-14 20:02:59\r\nTagged date : UTC 2013-08-14 20:02:59\r\n\r\nAudio\r\nID : 2\r\nFormat : AAC\r\nFormat/Info : Advanced Audio Codec\r\nFormat profile : LC\r\nCodec ID : 40\r\nDuration : 13mn 39s\r\nBit rate mode : Variable\r\nBit rate : 68.5 Kbps\r\nMaximum bit rate : 96.0 Kbps\r\nChannel count : 2 channels\r\nChannel positions : Front: L R\r\nSampling rate : 44.1 KHz\r\nCompression mode : Lossy\r\nDelay relative to video : 67ms\r\nStream size : 6.69 MiB (2%)\r\nLanguage : English\r\nEncoded date : UTC 2013-08-14 20:02:59\r\nTagged date : UTC 2013-08-14 20:02:59\r\n\r\n