Tracy Smile

Beautiful modelAnal with beautiful teen

Posted in HD Porn, Pornstar, Sex Movies, Teen | 7153 Views |


Rate this girl !!!




\r\n\r\n2.jpeg\r\n\r\nTracy Smile [teen]\r\n\r\n\r\n Link(747 Mb||48:50||960*540||MP4)



DOWNLOAD

Keep2share.cc - Uploaded.net - Openload.co - Rapidu.net


http://keep2share.cc/file/52ddcd5b77745
http://ul.to/j40iidq2
http://ryushare.com/4e4eb7ef5447/HZGRDNgl.rar


Premium here:
uploaded.net
keep2share.cc
rapidu.net.cc

Teens related to Tracy Smile


farst taim sex downlod ryushare uploaded keep2share

farst taim sex downlod

www xxxnewvideo hd com ryushare uploaded keep2share

www xxxnewvideo hd com

Hardcore Sex Hub 223889 ryushare uploaded keep2share

Hardcore Sex Hub 223889

Anjelica – My Inner Feelings ryushare uploaded keep2share

Anjelica – My Inner Feelings

Hot Japanese ryushare uploaded keep2share

Hot Japanese

porne vedio mkv formate 226102 ryushare uploaded keep2share

porne vedio mkv formate 226102

Hot brunette blowjob ryushare uploaded keep2share

Hot brunette blowjob

xxxhqvideo dld ryushare uploaded keep2share

xxxhqvideo dld

xxxbf moved ryushare uploaded keep2share

xxxbf moved

Nude Teens fucking hard 223878 ryushare uploaded keep2share

Nude Teens fucking hard 223878

Delicious tiny teen ryushare uploaded keep2share

Delicious tiny teen

Porn teen hd downloads 224098 ryushare uploaded keep2share

Porn teen hd downloads 224098

Xxx 888 226518 ryushare uploaded keep2share

Xxx 888 226518

sexy full movies hd pron ryushare uploaded keep2share

sexy full movies hd pron

Watch Teen Sex Videos HD 1246 ryushare uploaded keep2share

Watch Teen Sex Videos HD 1246

Christina Snow – NubilesFilms – Join In ryushare uploaded keep2share

Christina Snow – NubilesFilms – Join In

Tiffany Fox, Alina Li – Sleepover Aftermath ryushare uploaded keep2share

Tiffany Fox, Alina Li – Sleepover Aftermath

Tube Young Sex 3436 ryushare uploaded keep2share

Tube Young Sex 3436

LegalPorno.com] Rebecca Black takes 3 cocks in ryushare uploaded keep2share

LegalPorno.com] Rebecca Black takes 3 cocks in

xxxsex video hd1080p dawnlod 226611 ryushare uploaded keep2share

xxxsex video hd1080p dawnlod 226611

Hd young videos 1695 ryushare uploaded keep2share

Hd young videos 1695

Wow girls downloads hd 224254 ryushare uploaded keep2share

Wow girls downloads hd 224254

film sexxxx2014 ryushare uploaded keep2share

film sexxxx2014

Www porn movie mkv download com 226307 ryushare uploaded keep2share

Www porn movie mkv download com 226307

sax yas xxx ryushare uploaded keep2share

sax yas xxx

[BlacksOnBlondes.com / DogFartNetwork.com] Natasha Nice (2016-11-29) [2016 г., Anal, 1 on 1, Big Tits, Brunette, Petite, Facial, No Tattoos, Shaved, ATM, 720p] ryushare uploaded keep2share

[BlacksOnBlondes.com / DogFartNetwork.com] Natasha Nice (2016-11-29) [2016 г., Anal, 1 on 1, Big Tits, Brunette, Petite, Facial, No Tattoos, Shaved, ATM, 720p]

Good Teen Tube Sexy Young Naked Girls Movies 224024 ryushare uploaded keep2share

Good Teen Tube Sexy Young Naked Girls Movies 224024

Beautiful small tits ryushare uploaded keep2share

Beautiful small tits

Nude Teens fucking hard 223931 ryushare uploaded keep2share

Nude Teens fucking hard 223931

Nude Teens fucking hard Redhair amateur 4896 ryushare uploaded keep2share

Nude Teens fucking hard Redhair amateur 4896

Watch Teen Sex Videos HD 1186 ryushare uploaded keep2share

Watch Teen Sex Videos HD 1186

Adult Hardcore XXX Sex Videos 1343 ryushare uploaded keep2share

Adult Hardcore XXX Sex Videos 1343

Porn teen hd downloads 225513 ryushare uploaded keep2share

Porn teen hd downloads 225513

Young 720p hd porn 4148 ryushare uploaded keep2share

Young 720p hd porn 4148

me bbxxxhd 226343 ryushare uploaded keep2share

me bbxxxhd 226343

Report broken links / Post a comment

You must be logged in to post a comment.



General\r\nComplete name : D:Tracy Smile [teen]HZGRDNglHZGRDNgl.mp4\r\nFormat : MPEG-4\r\nFormat profile : Base Media\r\nCodec ID : isom\r\nFile size : 747 MiB\r\nDuration : 48mn 50s\r\nOverall bit rate : 2 137 Kbps\r\nMovie name : パツキンチャンネルZ Vol.3~義母は悩殺ブロンド美人~\r\nPerformer : ローラ\r\nGenre : 素人\r\nEncoded date : UTC 2013-10-22 04:22:36\r\nTagged date : UTC 2013-10-22 04:22:36\r\nWriting application : Lavf54.6.100\r\nComment : もし、父親の再婚者が飛びっきりスタイルが良い金髪美人だとしたら、あなたは自分の欲望に勝てるでしょうか?しなやかなボディラインを見るたび欲望はかき立てられ、もはや自分の理性をコントロールできなくなってしまうかもしれません。本作品でボクは超えてはならない一線を踏み出してしまいます。 / ボクの淫慾に義母・ローラも抵抗はするが、ひるむ事のないボクの攻撃で、ついにはズボンを脱がされてしまいます。少し焼けた肌に清潔感を引き立せる薄い水色のパンツにくい込んだアソコのライン、そりゃボクじゃなくても舐めたくもなるでしょう!ローラは困惑した表情を見せますが、やはり女のサガは隠せません!ボクがマ〇コを舐めるとエロチックな表情を見せ、今まで嫌がっていたボクのなすがままに。。。\r\n\r\nVideo\r\nID : 1\r\nFormat : AVC\r\nFormat/Info : Advanced Video Codec\r\nFormat profile : High@L3.2\r\nFormat settings, CABAC : Yes\r\nFormat settings, ReFrames : 4 frames\r\nCodec ID : avc1\r\nCodec ID/Info : Advanced Video Coding\r\nDuration : 48mn 50s\r\nBit rate : 2 000 Kbps\r\nWidth : 960 pixels\r\nHeight : 540 pixels\r\nDisplay aspect ratio : 16:9\r\nFrame rate mode : Constant\r\nFrame rate : 59.940 fps\r\nColor space : YUV\r\nChroma subsampling : 4:2:0\r\nBit depth : 8 bits\r\nScan type : Progressive\r\nBits/(Pixel*Frame) : 0.064\r\nStream size : 699 MiB (94%)\r\nWriting library : x264 core 130 r2273 b3065e6\r\nEncoding settings : cabac=1 / ref=3 / deblock=1:0:0 / analyse=0x3:0x113 / me=hex / subme=7 / psy=1 / psy_rd=1.00:0.00 / mixed_ref=1 / me_range=16 / chroma_me=1 / trellis=1 / 8x8dct=1 / cqm=0 / deadzone=21,11 / fast_pskip=1 / chroma_qp_offset=-2 / threads=18 / lookahead_threads=3 / sliced_threads=0 / nr=0 / decimate=1 / interlaced=0 / bluray_compat=0 / constrained_intra=0 / bframes=3 / b_pyramid=2 / b_adapt=1 / b_bias=0 / direct=1 / weightb=1 / open_gop=0 / weightp=2 / keyint=250 / keyint_min=25 / scenecut=40 / intra_refresh=0 / rc_lookahead=40 / rc=2pass / mbtree=1 / bitrate=2000 / ratetol=1.0 / qcomp=0.60 / qpmin=0 / qpmax=69 / qpstep=4 / cplxblur=20.0 / qblur=0.5 / ip_ratio=1.40 / aq=1:1.00\r\nEncoded date : UTC 2013-10-22 04:22:36\r\nTagged date : UTC 2013-10-22 04:22:36\r\n\r\nAudio\r\nID : 2\r\nFormat : AAC\r\nFormat/Info : Advanced Audio Codec\r\nFormat profile : LC\r\nCodec ID : 40\r\nDuration : 48mn 50s\r\nBit rate mode : Constant\r\nBit rate : 124 Kbps\r\nChannel(s) : 2 channels\r\nChannel positions : Front: L R\r\nSampling rate : 48.0 KHz\r\nCompression mode : Lossy\r\nStream size : 43.5 MiB (6%)\r\nEncoded date : UTC 2013-10-22 04:22:36\r\nTagged date : UTC 2013-10-22 04:22:36\r\n\r\n