Tube Young Sex 3798

Free Teen Porn Videos at Teen Sex Tube XXX 3801Adult Hardcore XXX Sex Videos 3795

Posted in HD Porn, Pornstar, Sex Movies, Teen | 6092 Views |


Rate this girl !!!


(13 raters, 40 scores, average: 3.08 out of 5, 61.54%)

cover

1920x1080p / MP4 / 819.08 MB

UPLOADED / RYUSHARE / FILEOM / KEEP2SHARE

 

SCREENSHOTS:

screens



DOWNLOAD

Keep2share.cc - Uploaded.net - Openload.co - Rapidu.net



Premium here:
uploaded.net
keep2share.cc
rapidu.net.cc

Incoming search terms:

  • TEENXVIDo H D


Teens related to Tube Young Sex 3798


Teen Porn XXX Tube 225857 ryushare uploaded keep2share

Teen Porn XXX Tube 225857

hd porn moives for pc ryushare uploaded keep2share

hd porn moives for pc

full 1280p xxx video 226633 ryushare uploaded keep2share

full 1280p xxx video 226633

Fresh Teen Videos 4156 ryushare uploaded keep2share

Fresh Teen Videos 4156

download 720p short video clips asiancandyshop com 226341 ryushare uploaded keep2share

download 720p short video clips asiancandyshop com 226341

www hd sex vediocom ryushare uploaded keep2share

www hd sex vediocom

Scarlet, Christine – Fantasy Come True ryushare uploaded keep2share

Scarlet, Christine – Fantasy Come True

18xGirls Fucked Virgin teen ryushare uploaded keep2share

18xGirls Fucked Virgin teen

Hot Teen Sex HD videos 1883 ryushare uploaded keep2share

Hot Teen Sex HD videos 1883

Young Virgin Pussy Teen Fuck Tube 4366 ryushare uploaded keep2share

Young Virgin Pussy Teen Fuck Tube 4366

Porn party teen girls 224803 ryushare uploaded keep2share

Porn party teen girls 224803

phog bf xxx ryushare uploaded keep2share

phog bf xxx

Yours Forever – Lisa ryushare uploaded keep2share

Yours Forever – Lisa

X-Angels.com Olivia ryushare uploaded keep2share

X-Angels.com Olivia

Hot Teen Sex 2379 ryushare uploaded keep2share

Hot Teen Sex 2379

Young Sex Movies 5695 ryushare uploaded keep2share

Young Sex Movies 5695

Hot Teen Sex HD videos 1679 ryushare uploaded keep2share

Hot Teen Sex HD videos 1679

WowGirls.com Nomi – An Expert At Work ryushare uploaded keep2share

WowGirls.com Nomi – An Expert At Work

First time Sexual Films 18 sex xxx 1785 ryushare uploaded keep2share

First time Sexual Films 18 sex xxx 1785

Hot xxx move download 225987 ryushare uploaded keep2share

Hot xxx move download 225987

Hardcore sex videos in the high definition quality 224715 ryushare uploaded keep2share

Hardcore sex videos in the high definition quality 224715

Www pinkworld com hd xxx video 226174 ryushare uploaded keep2share

Www pinkworld com hd xxx video 226174

Teenies Videos – Teen Porn, Teen Sex, XXX Free Videos 4123 ryushare uploaded keep2share

Teenies Videos – Teen Porn, Teen Sex, XXX Free Videos 4123

Connie Stay by my Woman – YoungLegalPorn ryushare uploaded keep2share

Connie Stay by my Woman – YoungLegalPorn

download free highly compressed sex videos 226284 ryushare uploaded keep2share

download free highly compressed sex videos 226284

Free Teen Porn Videos at Teen Sex Tube XXX 3477 ryushare uploaded keep2share

Free Teen Porn Videos at Teen Sex Tube XXX 3477

yang garl sex movi 226280 ryushare uploaded keep2share

yang garl sex movi 226280

full hd smooth sex videos 226484 ryushare uploaded keep2share

full hd smooth sex videos 226484

First time Sexual Films 18 sex xxx 3226 ryushare uploaded keep2share

First time Sexual Films 18 sex xxx 3226

Fresh Teen Videos 3763 ryushare uploaded keep2share

Fresh Teen Videos 3763

Free High Quality Sex Movies 5357 ryushare uploaded keep2share

Free High Quality Sex Movies 5357

romentic hd pornmovie download 226723 ryushare uploaded keep2share

romentic hd pornmovie download 226723

Teen Sex Videos Tube Movies 225390 ryushare uploaded keep2share

Teen Sex Videos Tube Movies 225390

Fresh Teen Videos 224791 ryushare uploaded keep2share

Fresh Teen Videos 224791

yangs xxxhd89 226700 ryushare uploaded keep2share

yangs xxxhd89 226700

Report broken links / Post a comment

You must be logged in to post a comment.



General
Complete name : D:hd pornstars teens ryushare.com uploaded.net keep2share.cc fileom.com streamcloud.eu allmyvideos.net ul.to download porn movies clips We_Can_Do_It_Everywhere_HD1080.mp4
Format : MPEG-4
Format profile : Base Media
Codec ID : isom
File size : 819 MiB
Duration : 25mn 54s
Overall bit rate mode : Variable
Overall bit rate : 4 419 Kbps
Encoded date : UTC 1970-01-01 00:00:00
Tagged date : UTC 1970-01-01 00:00:00
Writing application : Lavf52.64.2

Video
ID : 1
Format : AVC
Format/Info : Advanced Video Codec
Format profile : High@L4.0
Format settings, CABAC : Yes
Format settings, ReFrames : 2 frames
Codec ID : avc1
Codec ID/Info : Advanced Video Coding
Duration : 25mn 54s
Bit rate : 4 296 Kbps
Width : 1 920 pixels
Height : 1 080 pixels
Display aspect ratio : 16:9
Frame rate mode : Constant
Frame rate : 29.970 fps
Color space : YUV
Chroma subsampling : 4:2:0
Bit depth : 8 bits
Scan type : Progressive
Bits/(Pixel*Frame) : 0.069
Stream size : 796 MiB (97%)
Writing library : x264 core 102 r1666 d058f37
Encoding settings : cabac=1 / ref=2 / deblock=1:0:0 / analyse=0x3:0x113 / me=hex / subme=6 / psy=1 / psy_rd=1.00:0.00 / mixed_ref=0 / me_range=16 / chroma_me=1 / trellis=0 / 8x8dct=1 / cqm=0 / deadzone=21,11 / fast_pskip=1 / chroma_qp_offset=-2 / threads=24 / sliced_threads=0 / nr=0 / decimate=1 / interlaced=0 / constrained_intra=0 / bframes=3 / b_pyramid=0 / b_adapt=1 / b_bias=0 / direct=3 / weightb=1 / open_gop=0 / weightp=2 / keyint=250 / keyint_min=25 / scenecut=40 / intra_refresh=0 / rc_lookahead=40 / rc=crf / mbtree=1 / crf=20.0 / qcomp=0.60 / qpmin=10 / qpmax=51 / qpstep=4 / ip_ratio=1.41 / aq=1:1.00
Encoded date : UTC 1970-01-01 00:00:00
Tagged date : UTC 1970-01-01 00:00:00

Audio
ID : 2
Format : AAC
Format/Info : Advanced Audio Codec
Format profile : LC
Codec ID : 40
Duration : 25mn 54s
Bit rate mode : Variable
Bit rate : 118 Kbps
Channel(s) : 2 channels
Channel positions : Front: L R
Sampling rate : 44.1 KHz
Compression mode : Lossy
Stream size : 21.9 MiB (3%)
Encoded date : UTC 1970-01-01 00:00:00
Tagged date : UTC 1970-01-01 00:00:00



UPLOADED / RYUSHARE / FILEOM / KEEP2SHARE

hd pornstars teens ryushare.com uploaded.net keep2share.cc fileom.com streamcloud.eu allmyvideos.net ul.to download porn movies clips