Two Boys & One Girl – X-Art

Katerina Kay - No One Will See It Right?Welcome To The Wild / Beata

Posted in HD Porn, Pornstar, Sex Movies, Teen, Threesome | 26280 Views |


Rate this girl !!!




[X-Art.com] Two Boys & One Girl / Beatrice (aka Beata) / 4-03-13 [2013, All Sex, Glamour, Teen, Threesome, SiteRip, 720p]\r\n\r\npic\r\n\r\nGenre: All Sex, Glamour, Teen, Orgy, X-art\r\nDuration: 00:13:25\r\nStarring: Beatrice (aka Beata)\r\n\r\nVideo Quality: SiteRip/720p\r\nVideo Format: WMV\r\nVideo codec: Windows Media\r\nAudio Codec: WMA\r\nVideo: Windows Media Video 7 1280×720 5012kbps\r\nAudio: Windows Media Audio 44100Hz stereo 128kbps\r\n\r\n\r\n\r\n



DOWNLOAD

Keep2share.cc - Uploaded.net - Openload.co - Rapidu.net


http://keep2share.cc/file/52d19818b17a6
http://ryushare.com/hi90j1p3900x/B.tw0.720.rar
http://turbobit.net/2bd25w7xysrd.html
http://ul.to/3ehxa824


Premium here:
uploaded.net
keep2share.cc
rapidu.net.cc

Teens related to Two Boys & One Girl – X-Art


18 Years Old Girl – Episode 279 ryushare uploaded keep2share

18 Years Old Girl – Episode 279

hسكس ryushare uploaded keep2share

hسكس

8 Teen XXX – Teen Sex 5056 ryushare uploaded keep2share

8 Teen XXX – Teen Sex 5056

Porn shortest videos free download ryushare uploaded keep2share

Porn shortest videos free download

pron pictures fucked 226288 ryushare uploaded keep2share

pron pictures fucked 226288

Wow Porn Movies download) 224417 ryushare uploaded keep2share

Wow Porn Movies download) 224417

Teen porn movies 5617 ryushare uploaded keep2share

Teen porn movies 5617

Hd quality – Teen sex video 5249 ryushare uploaded keep2share

Hd quality – Teen sex video 5249

Www hd xvideos download in 225992 ryushare uploaded keep2share

Www hd xvideos download in 225992

Welcome To The Wild / Beata ryushare uploaded keep2share

Welcome To The Wild / Beata

wow cum com hd 226397 ryushare uploaded keep2share

wow cum com hd 226397

www //Yang girl fuck hd com 226331 ryushare uploaded keep2share

www //Yang girl fuck hd com 226331

Teen Sex Porn Videos Free Nude Teens 4307 ryushare uploaded keep2share

Teen Sex Porn Videos Free Nude Teens 4307

Wow girls hd porn teens 224738 ryushare uploaded keep2share

Wow girls hd porn teens 224738

Wow girls porn teens 4254 ryushare uploaded keep2share

Wow girls porn teens 4254

Teens Love huge cooks 1166 ryushare uploaded keep2share

Teens Love huge cooks 1166

Tube xxx 223693 ryushare uploaded keep2share

Tube xxx 223693

HD Teen Sex Tube 224893 ryushare uploaded keep2share

HD Teen Sex Tube 224893

Young XXX Tube Videos 3931 ryushare uploaded keep2share

Young XXX Tube Videos 3931

xxx skymovi com ryushare uploaded keep2share

xxx skymovi com

Kail – My Favorite Country ryushare uploaded keep2share

Kail – My Favorite Country

[RylskyArt.com] Luciana – Sommerz ryushare uploaded keep2share

[RylskyArt.com] Luciana – Sommerz

Hd young videos 1872 ryushare uploaded keep2share

Hd young videos 1872

College Teen Sex 2615 ryushare uploaded keep2share

College Teen Sex 2615

Free Young Porn Videos XXX Teen Porn 3495 ryushare uploaded keep2share

Free Young Porn Videos XXX Teen Porn 3495

Amarna  – PublicAgent ryushare uploaded keep2share

Amarna – PublicAgent

fast tiam movie hot xxx hd free 226715 ryushare uploaded keep2share

fast tiam movie hot xxx hd free 226715

HD Porn Teen Sex Videos 4693 ryushare uploaded keep2share

HD Porn Teen Sex Videos 4693

very hot pron 226721 ryushare uploaded keep2share

very hot pron 226721

[CzechCasting.com / CzechAV.com] Jirina ryushare uploaded keep2share

[CzechCasting.com / CzechAV.com] Jirina

Adult Hardcore XXX Sex Videos 4188 ryushare uploaded keep2share

Adult Hardcore XXX Sex Videos 4188

Nicole – Summertime sex hookup ryushare uploaded keep2share

Nicole – Summertime sex hookup

Young Sex Movies 224182 ryushare uploaded keep2share

Young Sex Movies 224182

Teens sex mania 225041 ryushare uploaded keep2share

Teens sex mania 225041

21Naturals.com Ashley ryushare uploaded keep2share

21Naturals.com Ashley

Report broken links / Post a comment

You must be logged in to post a comment.



General\r\nComplete name : D:Two Boys and a Girl Beatrice 04.03 720x-art_beatrice_logan_pablo_two_boys_and_a_girl_720.wmv\r\nFormat : Windows Media\r\nFile size : 505 MiB\r\nDuration : 13mn 25s\r\nOverall bit rate : 5 254 Kbps\r\nMaximum Overall bit rate : 5 248 Kbps\r\nEncoded date : UTC 1970-01-01 00:00:00.000\r\nmajor_brand : qt \r\nminor_version : 537199360\r\ncompatible_brands : qt \r\ntimecode : 01:00:00:00\r\nWM/EncodingSettings : Lavf54.22.100\r\n\r\nVideo\r\nID : 1\r\nFormat : WMV1\r\nCodec ID : WMV1\r\nCodec ID/Info : Windows Media Video 7\r\nDescription of the codec : wmv1\r\nDuration : 13mn 25s\r\nBit rate : 4 909 Kbps\r\nWidth : 1 280 pixels\r\nHeight : 720 pixels\r\nDisplay aspect ratio : 16:9\r\nFrame rate : 25.000 fps\r\nBit depth : 8 bits\r\nBits/(Pixel*Frame) : 0.213\r\nStream size : 472 MiB (93%)\r\n\r\nAudio\r\nID : 2\r\nFormat : WMA\r\nFormat version : Version 2\r\nCodec ID : 161\r\nCodec ID/Info : Windows Media Audio\r\nDescription of the codec : Windows Media Audio V8\r\nDuration : 13mn 25s\r\nBit rate : 128 Kbps\r\nChannel(s) : 2 channels\r\nSampling rate : 44.1 KHz\r\nBit depth : 16 bits\r\nStream size : 12.3 MiB (2%)\r\n\r\n