Two Teasing Tongues 10 – B

Two Teasing Tongues 10 - AK Two Teasing Tongues 8 A

Posted in HD Porn, Pornstar, Sex Movies, Teen, Threesome | 13942 Views |


Rate this girl !!!


(13 raters, 41 scores, average: 3.15 out of 5, 63.08%)

pic\r\n

[K Klixen Productions / clips4sale.com] Cipriana and Jessyka (Two Teasing Tongues 10) [2014 г., Blowjob] B

\r\nTwo Teasing Tongues 10 -B\r\npicImya actress: Cipriana and Jessyka\r\nName movie: Two Teasing Tongues 10\r\nSubsite and site: K Klixen Productions / clips4sale.com\r\nProduction year: 2014\r\nCategory: Blowjob\r\nDuration: 00:48:40\r\nDescription: Cipriana and Jessyka POV oral scene\r\nVideo Format: MP4\r\nVideo codec: H.264 / AVC\r\nAudio codec: AAC\r\nVideo: MPEG4 Video (H264) 852×480 29.97fps 2018kbps\r\nAudio: AAC 44100Hz stereo 95kbps\r\n\r\npic



DOWNLOAD

Keep2share.cc - Uploaded.net - Openload.co - Rapidu.net



http://k2s.cc/file/766045e615e41/Cl1ps.4.S4l3.C1pr14n4%2C.J3ssyk4.Two.T34s1ng.Tongu3s.10.P4rt.B.mp4

http://ul.to/tlwo1ft2/Cl1ps.4.S4l3.C1pr14n4,.J3ssyk4.Two.T34s1ng.Tongu3s.10.P4rt.B.mp4


Premium here:
uploaded.net
keep2share.cc
rapidu.net.cc

Incoming search terms:

  • two teasing tongues
  • two teasing tongue
  • two tongues teasing
  • Cipriana Jessyka Two Teasing Tongues Klixen
  • Cipriana Jessyka Two Teasing Tongues Part A video
  • two teasing tongues porn hd
  • two teasing tongues klixen
  • two teasing tongues 13 part b
  • two teasing tongues 10 b
  • cipriana jessyka - two teasing tongues 10 part b
  • teasing tongues 10
  • Klixen Daniela Adorable Lips
  • k klixen prod
  • #18blowjob


Teens related to Two Teasing Tongues 10 – B


Sweet Teen Porn – Young Porn Videos 225089 ryushare uploaded keep2share

Sweet Teen Porn – Young Porn Videos 225089

Fresh Teen Videos 225259 ryushare uploaded keep2share

Fresh Teen Videos 225259

download free highly compressed sex videos 226284 ryushare uploaded keep2share

download free highly compressed sex videos 226284

Young XXX Tube Videos 3935 ryushare uploaded keep2share

Young XXX Tube Videos 3935

SpinChix mp4 226131 ryushare uploaded keep2share

SpinChix mp4 226131

HD Porn Videos 224706 ryushare uploaded keep2share

HD Porn Videos 224706

Linda S – I’Am Your Woman ryushare uploaded keep2share

Linda S – I’Am Your Woman

wwwten sex hd com 226451 ryushare uploaded keep2share

wwwten sex hd com 226451

The best Teen sex 2589 ryushare uploaded keep2share

The best Teen sex 2589

BLU FIMS BFXX GILRS COM 226254 ryushare uploaded keep2share

BLU FIMS BFXX GILRS COM 226254

Porn teen hd downloads 225557 ryushare uploaded keep2share

Porn teen hd downloads 225557

www 18 videos lk ryushare uploaded keep2share

www 18 videos lk

HD sex movies downloads 2769 ryushare uploaded keep2share

HD sex movies downloads 2769

anjelica join the fun keep2share ryushare uploaded keep2share

anjelica join the fun keep2share

Teenies Videos – Teen Porn, Teen Sex, XXX Free Videos 2408 ryushare uploaded keep2share

Teenies Videos – Teen Porn, Teen Sex, XXX Free Videos 2408

Sex in bed with beautiful redhead ryushare uploaded keep2share

Sex in bed with beautiful redhead

College Teen Sex 5112 ryushare uploaded keep2share

College Teen Sex 5112

Sweet Teen Porn – Young Porn Videos 3447 ryushare uploaded keep2share

Sweet Teen Porn – Young Porn Videos 3447

Kiki Vidis ryushare uploaded keep2share

Kiki Vidis

xxx new move hQ dawonlod ryushare uploaded keep2share

xxx new move hQ dawonlod

Teen porn xxx 225790 ryushare uploaded keep2share

Teen porn xxx 225790

Tracy Smile – Soldier ryushare uploaded keep2share

Tracy Smile – Soldier

Tube xxx 224380 ryushare uploaded keep2share

Tube xxx 224380

Iwia A & Lorena B & Greg Baldwin – Dare ryushare uploaded keep2share

Iwia A & Lorena B & Greg Baldwin – Dare

Tube Young Sex 1406 ryushare uploaded keep2share

Tube Young Sex 1406

Tube Young Sex 3436 ryushare uploaded keep2share

Tube Young Sex 3436

HD Porn Teen Sex Videos 225413 ryushare uploaded keep2share

HD Porn Teen Sex Videos 225413

Porno movies young teens lesbian 5426 ryushare uploaded keep2share

Porno movies young teens lesbian 5426

saxy english xxx hd download ryushare uploaded keep2share

saxy english xxx hd download

HD Porn Videos 1271 ryushare uploaded keep2share

HD Porn Videos 1271

Teen Sex Movies Young Porn Tube Vids 1253 ryushare uploaded keep2share

Teen Sex Movies Young Porn Tube Vids 1253

Wow Porn Teen Movies HD ryushare uploaded keep2share

Wow Porn Teen Movies HD

Teena Dolly – Teena Lipoldino 140 Movies ryushare uploaded keep2share

Teena Dolly – Teena Lipoldino 140 Movies

Franziska Facella – Sparkle For Me ryushare uploaded keep2share

Franziska Facella – Sparkle For Me

HD Sex World Videos High Definition Free Porn 3888 ryushare uploaded keep2share

HD Sex World Videos High Definition Free Porn 3888

Report broken links / Post a comment

You must be logged in to post a comment.



General\r\nComplete name : D:hd teens porn download free online[K Klixen Productions / clips4sale.com] Cipriana and Jessyka (Two Teasing Tongues 10) [2014 г., Blowjob] B.PArt.B.mp4\r\nFormat : MPEG-4\r\nCodec ID : M4V \r\nFile size : 177 MiB\r\nDuration : 11mn 42s\r\nOverall bit rate mode : Variable\r\nOverall bit rate : 2 116 Kbps\r\nEncoded date : UTC 1970-01-01 00:00:00\r\nTagged date : UTC 1970-01-01 00:00:00\r\n\r\nVideo\r\nID : 1\r\nFormat : AVC\r\nFormat/Info : Advanced Video Codec\r\nFormat profile : Baseline@L3.0\r\nFormat settings, CABAC : No\r\nFormat settings, ReFrames : 1 frame\r\nFormat settings, GOP : M=1, N=12\r\nCodec ID : avc1\r\nCodec ID/Info : Advanced Video Coding\r\nDuration : 11mn 42s\r\nBit rate : 2 000 Kbps\r\nWidth : 852 pixels\r\nHeight : 480 pixels\r\nDisplay aspect ratio : 16:9\r\nFrame rate mode : Constant\r\nFrame rate : 29.970 fps\r\nColor space : YUV\r\nChroma subsampling : 4:2:0\r\nBit depth : 8 bits\r\nScan type : Progressive\r\nBits/(Pixel*Frame) : 0.163\r\nStream size : 169 MiB (95%)\r\nWriting library : x264 core 77\r\nEncoding settings : cabac=0 / ref=1 / deblock=0:0:0 / analyse=0x1:0 / me=dia / subme=8 / psy=1 / psy_rd=1.0:0.0 / mixed_ref=0 / me_range=16 / chroma_me=0 / trellis=0 / 8x8dct=0 / cqm=0 / deadzone=21,11 / chroma_qp_offset=-2 / threads=2 / nr=0 / decimate=1 / mbaff=0 / constrained_intra=0 / bframes=0 / keyint=12 / keyint_min=7 / scenecut=0 / rc_lookahead=29 / rc=cbr / mbtree=1 / bitrate=2000 / ratetol=1.0 / qcomp=0.60 / qpmin=10 / qpmax=51 / qpstep=4 / vbv_maxrate=10000 / vbv_bufsize=10000 / ip_ratio=1.41 / aq=1:1.00\r\nLanguage : German\r\nEncoded date : UTC 1970-01-01 00:00:00\r\nTagged date : UTC 1970-01-01 00:00:00\r\n\r\nAudio\r\nID : 2\r\nFormat : AAC\r\nFormat/Info : Advanced Audio Codec\r\nFormat profile : LC\r\nCodec ID : 40\r\nDuration : 11mn 42s\r\nBit rate mode : Variable\r\nBit rate : 96.0 Kbps\r\nChannel(s) : 2 channels\r\nChannel positions : Front: L R\r\nSampling rate : 44.1 KHz\r\nCompression mode : Lossy\r\nStream size : 8.01 MiB (5%)\r\nLanguage : German\r\nEncoded date : UTC 1970-01-01 00:00:00\r\nTagged date : UTC 1970-01-01 00:00:00\r\n\r\n