Two Teasing Tongues 10 – B

Two Teasing Tongues 10 - AK Two Teasing Tongues 8 A

Posted in HD Porn, Pornstar, Sex Movies, Teen, Threesome | 13552 Views |


Rate this girl !!!


(13 raters, 41 scores, average: 3.15 out of 5, 63.08%)

pic

[K Klixen Productions / clips4sale.com] Cipriana and Jessyka (Two Teasing Tongues 10) [2014 г., Blowjob] B

Two Teasing Tongues 10 -B
picImya actress: Cipriana and Jessyka
Name movie: Two Teasing Tongues 10
Subsite and site: K Klixen Productions / clips4sale.com
Production year: 2014
Category: Blowjob
Duration: 00:48:40
Description: Cipriana and Jessyka POV oral scene
Video Format: MP4
Video codec: H.264 / AVC
Audio codec: AAC
Video: MPEG4 Video (H264) 852×480 29.97fps 2018kbps
Audio: AAC 44100Hz stereo 95kbps

pic



DOWNLOAD

Keep2share.cc - Uploaded.net - Openload.co - Rapidu.net



Premium here:
uploaded.net
keep2share.cc
rapidu.net.cc

Incoming search terms:

  • two teasing tongues
  • two teasing tongue
  • two tongues teasing
  • Cipriana Jessyka Two Teasing Tongues Klixen
  • two teasing tongues klixen
  • two teasing tongues 10 b
  • teasing tongues 10
  • Klixen Daniela Adorable Lips
  • k klixen prod
  • cipriana jessyka - two teasing tongues 10 part b
  • #18blowjob


Teens related to Two Teasing Tongues 10 – B


www sexhdmovus com ryushare uploaded keep2share

www sexhdmovus com

Carmen Fox – Fucked by the best client ryushare uploaded keep2share

Carmen Fox – Fucked by the best client

Free High Quality Sex Movies 225750 ryushare uploaded keep2share

Free High Quality Sex Movies 225750

free download sexy xxx mp4 movies com ryushare uploaded keep2share

free download sexy xxx mp4 movies com

valeria alexa xxx ryushare uploaded keep2share

valeria alexa xxx

Watch Teen Sex Videos HD 1207 ryushare uploaded keep2share

Watch Teen Sex Videos HD 1207

Great Girlish Enthusiasm ryushare uploaded keep2share

Great Girlish Enthusiasm

TeenBFF.com Maci Winslett & Alex Tanner – Posing for Cum ryushare uploaded keep2share

TeenBFF.com Maci Winslett & Alex Tanner – Posing for Cum

Wow girls hd porn teens 5537 ryushare uploaded keep2share

Wow girls hd porn teens 5537

xxx vid sex hd18 www ryushare uploaded keep2share

xxx vid sex hd18 www

Teenies Videos – Teen Porn, Teen Sex, XXX Free Videos 5072 ryushare uploaded keep2share

Teenies Videos – Teen Porn, Teen Sex, XXX Free Videos 5072

Free Young Porn Videos XXX Teen Porn 5149 ryushare uploaded keep2share

Free Young Porn Videos XXX Teen Porn 5149

Hot Teen Sex HD videos 1748 ryushare uploaded keep2share

Hot Teen Sex HD videos 1748

Sweet Teen Porn – Young Porn Videos 3794 ryushare uploaded keep2share

Sweet Teen Porn – Young Porn Videos 3794

Porn HD Sex HD Teen Sex 224013 ryushare uploaded keep2share

Porn HD Sex HD Teen Sex 224013

hd porn new breast 226190 ryushare uploaded keep2share

hd porn new breast 226190

Porno lesbian young teens movies 4143 ryushare uploaded keep2share

Porno lesbian young teens movies 4143

Veronika – Awesome sex with hot teeny ryushare uploaded keep2share

Veronika – Awesome sex with hot teeny

Fucked by two cocks in all holes ryushare uploaded keep2share

Fucked by two cocks in all holes

Hardcore sex videos in the high definition quality 5010 ryushare uploaded keep2share

Hardcore sex videos in the high definition quality 5010

Teens Sweet orgy ryushare uploaded keep2share

Teens Sweet orgy

foll hd xxx 2016bobes mailk 226591 ryushare uploaded keep2share

foll hd xxx 2016bobes mailk 226591

Hot download sex girls movies 5611 ryushare uploaded keep2share

Hot download sex girls movies 5611

ساريه السواس افلامsexx sexx xxxxxx xxx 226756 ryushare uploaded keep2share

ساريه السواس افلامsexx sexx xxxxxx xxx 226756

Porn HD Sex HD Teen Sex 1482 ryushare uploaded keep2share

Porn HD Sex HD Teen Sex 1482

www littile pussy hdmp4 com 226115 ryushare uploaded keep2share

www littile pussy hdmp4 com 226115

Ariana Marie, Holly Michaels (Rub You The Right Way / 04.11.13) ryushare uploaded keep2share

Ariana Marie, Holly Michaels (Rub You The Right Way / 04.11.13)

Teen Sex Videos Tube Movies 225164 ryushare uploaded keep2share

Teen Sex Videos Tube Movies 225164

Fresh Teen Videos 224791 ryushare uploaded keep2share

Fresh Teen Videos 224791

Wow Girls Porn Clips download 223967 ryushare uploaded keep2share

Wow Girls Porn Clips download 223967

Young XXX Tube Videos 2398 ryushare uploaded keep2share

Young XXX Tube Videos 2398

Girls sex art hd teens videos 225859 ryushare uploaded keep2share

Girls sex art hd teens videos 225859

Teen Sex Porn Videos Free Nude Teens 4307 ryushare uploaded keep2share

Teen Sex Porn Videos Free Nude Teens 4307

Young xxx 224169 ryushare uploaded keep2share

Young xxx 224169

Hot download sex girls movies 224257 ryushare uploaded keep2share

Hot download sex girls movies 224257

Report broken links / Post a comment

You must be logged in to post a comment.



General
Complete name : D:hd teens porn download free online[K Klixen Productions / clips4sale.com] Cipriana and Jessyka (Two Teasing Tongues 10) [2014 г., Blowjob] B.PArt.B.mp4
Format : MPEG-4
Codec ID : M4V
File size : 177 MiB
Duration : 11mn 42s
Overall bit rate mode : Variable
Overall bit rate : 2 116 Kbps
Encoded date : UTC 1970-01-01 00:00:00
Tagged date : UTC 1970-01-01 00:00:00

Video
ID : 1
Format : AVC
Format/Info : Advanced Video Codec
Format profile : Baseline@L3.0
Format settings, CABAC : No
Format settings, ReFrames : 1 frame
Format settings, GOP : M=1, N=12
Codec ID : avc1
Codec ID/Info : Advanced Video Coding
Duration : 11mn 42s
Bit rate : 2 000 Kbps
Width : 852 pixels
Height : 480 pixels
Display aspect ratio : 16:9
Frame rate mode : Constant
Frame rate : 29.970 fps
Color space : YUV
Chroma subsampling : 4:2:0
Bit depth : 8 bits
Scan type : Progressive
Bits/(Pixel*Frame) : 0.163
Stream size : 169 MiB (95%)
Writing library : x264 core 77
Encoding settings : cabac=0 / ref=1 / deblock=0:0:0 / analyse=0x1:0 / me=dia / subme=8 / psy=1 / psy_rd=1.0:0.0 / mixed_ref=0 / me_range=16 / chroma_me=0 / trellis=0 / 8x8dct=0 / cqm=0 / deadzone=21,11 / chroma_qp_offset=-2 / threads=2 / nr=0 / decimate=1 / mbaff=0 / constrained_intra=0 / bframes=0 / keyint=12 / keyint_min=7 / scenecut=0 / rc_lookahead=29 / rc=cbr / mbtree=1 / bitrate=2000 / ratetol=1.0 / qcomp=0.60 / qpmin=10 / qpmax=51 / qpstep=4 / vbv_maxrate=10000 / vbv_bufsize=10000 / ip_ratio=1.41 / aq=1:1.00
Language : German
Encoded date : UTC 1970-01-01 00:00:00
Tagged date : UTC 1970-01-01 00:00:00

Audio
ID : 2
Format : AAC
Format/Info : Advanced Audio Codec
Format profile : LC
Codec ID : 40
Duration : 11mn 42s
Bit rate mode : Variable
Bit rate : 96.0 Kbps
Channel(s) : 2 channels
Channel positions : Front: L R
Sampling rate : 44.1 KHz
Compression mode : Lossy
Stream size : 8.01 MiB (5%)
Language : German
Encoded date : UTC 1970-01-01 00:00:00
Tagged date : UTC 1970-01-01 00:00:00