Two Teasing Tongues 10 – B

Two Teasing Tongues 10 - AK Two Teasing Tongues 8 A

Posted in HD Porn, Pornstar, Sex Movies, Teen, Threesome | 14199 Views |


Rate this girl !!!


(13 raters, 41 scores, average: 3.15 out of 5, 63.08%)

pic\r\n

[K Klixen Productions / clips4sale.com] Cipriana and Jessyka (Two Teasing Tongues 10) [2014 г., Blowjob] B

\r\nTwo Teasing Tongues 10 -B\r\npicImya actress: Cipriana and Jessyka\r\nName movie: Two Teasing Tongues 10\r\nSubsite and site: K Klixen Productions / clips4sale.com\r\nProduction year: 2014\r\nCategory: Blowjob\r\nDuration: 00:48:40\r\nDescription: Cipriana and Jessyka POV oral scene\r\nVideo Format: MP4\r\nVideo codec: H.264 / AVC\r\nAudio codec: AAC\r\nVideo: MPEG4 Video (H264) 852×480 29.97fps 2018kbps\r\nAudio: AAC 44100Hz stereo 95kbps\r\n\r\npic



DOWNLOAD

Keep2share.cc - Uploaded.net - Openload.co - Rapidu.net



http://k2s.cc/file/766045e615e41/Cl1ps.4.S4l3.C1pr14n4%2C.J3ssyk4.Two.T34s1ng.Tongu3s.10.P4rt.B.mp4

http://ul.to/tlwo1ft2/Cl1ps.4.S4l3.C1pr14n4,.J3ssyk4.Two.T34s1ng.Tongu3s.10.P4rt.B.mp4


Premium here:
uploaded.net
keep2share.cc
rapidu.net.cc

Incoming search terms:

  • two teasing tongues
  • two teasing tongue
  • two teasing tongues klixen
  • two tongues teasing
  • Cipriana Jessyka Two Teasing Tongues Klixen
  • k klixen prod
  • two teasing tongues porn hd
  • cipriana jessyka - two teasing tongues 10 part b
  • two teasing tongues 13 part b
  • two teasing tongues 10 b
  • Cipriana Jessyka Two Teasing Tongues Part A video
  • teasing tongues 10
  • Klixen Daniela Adorable Lips
  • #18blowjob


Teens related to Two Teasing Tongues 10 – B


Sex in the morning ryushare uploaded keep2share

Sex in the morning

Free High Quality Sex Movies 4863 ryushare uploaded keep2share

Free High Quality Sex Movies 4863

HD Porn Videos 2925 ryushare uploaded keep2share

HD Porn Videos 2925

Yes Xxx Long Videos High Difinition Porn Movies 226690 ryushare uploaded keep2share

Yes Xxx Long Videos High Difinition Porn Movies 226690

Tube xxx 224380 ryushare uploaded keep2share

Tube xxx 224380

Young XXX Tube Videos 223682 ryushare uploaded keep2share

Young XXX Tube Videos 223682

Pretty skinny girl in casting video ryushare uploaded keep2share

Pretty skinny girl in casting video

Veiki & Liona – Two Is Better Then One ryushare uploaded keep2share

Veiki & Liona – Two Is Better Then One

Teen Porn XXX Tube 225930 ryushare uploaded keep2share

Teen Porn XXX Tube 225930

Young Sex Movies 224764 ryushare uploaded keep2share

Young Sex Movies 224764

Hd avi xxx sexy in ryushare uploaded keep2share

Hd avi xxx sexy in

www defloration hqvideo com 226313 ryushare uploaded keep2share

www defloration hqvideo com 226313

Alexis Brill – Waltz With Me – Autumn ryushare uploaded keep2share

Alexis Brill – Waltz With Me – Autumn

College Teen Sex 225693 ryushare uploaded keep2share

College Teen Sex 225693

HD Porn Teen Sex Videos 3959 ryushare uploaded keep2share

HD Porn Teen Sex Videos 3959

J. Joanna (Shoot It For Me / 15.12.13) ryushare uploaded keep2share

J. Joanna (Shoot It For Me / 15.12.13)

Wow porn tube movies 3516 ryushare uploaded keep2share

Wow porn tube movies 3516

Porn teen hd downloads 225845 ryushare uploaded keep2share

Porn teen hd downloads 225845

8 Teen XXX – Teen Sex 2973 ryushare uploaded keep2share

8 Teen XXX – Teen Sex 2973

HQ Sex Movies Download 2815 ryushare uploaded keep2share

HQ Sex Movies Download 2815

yang garls boy xxx ryushare uploaded keep2share

yang garls boy xxx

HD Teen Sex Tube 3572 ryushare uploaded keep2share

HD Teen Sex Tube 3572

Fresh Teen Videos 3763 ryushare uploaded keep2share

Fresh Teen Videos 3763

Teen Sex Videos Tube Movies 225334 ryushare uploaded keep2share

Teen Sex Videos Tube Movies 225334

avi full hd porn 226178 ryushare uploaded keep2share

avi full hd porn 226178

High Definition Movies on HD 224690 ryushare uploaded keep2share

High Definition Movies on HD 224690

Eva, Alberta, Niona, Nora – Sex party ryushare uploaded keep2share

Eva, Alberta, Niona, Nora – Sex party

teen porn white skin 226106 ryushare uploaded keep2share

teen porn white skin 226106

Hardcore sex videos in the high definition quality 1264 ryushare uploaded keep2share

Hardcore sex videos in the high definition quality 1264

8 Teen XXX – Teen Sex 224358 ryushare uploaded keep2share

8 Teen XXX – Teen Sex 224358

Hot download sex girls movies 224915 ryushare uploaded keep2share

Hot download sex girls movies 224915

Grace Solo 2 ryushare uploaded keep2share

Grace Solo 2

xvideos hd com dounlod 226335 ryushare uploaded keep2share

xvideos hd com dounlod 226335

Teen porn movies 2132 ryushare uploaded keep2share

Teen porn movies 2132

X-Angels.com Lida ryushare uploaded keep2share

X-Angels.com Lida

Report broken links / Post a comment

You must be logged in to post a comment.



General\r\nComplete name : D:hd teens porn download free online[K Klixen Productions / clips4sale.com] Cipriana and Jessyka (Two Teasing Tongues 10) [2014 г., Blowjob] B.PArt.B.mp4\r\nFormat : MPEG-4\r\nCodec ID : M4V \r\nFile size : 177 MiB\r\nDuration : 11mn 42s\r\nOverall bit rate mode : Variable\r\nOverall bit rate : 2 116 Kbps\r\nEncoded date : UTC 1970-01-01 00:00:00\r\nTagged date : UTC 1970-01-01 00:00:00\r\n\r\nVideo\r\nID : 1\r\nFormat : AVC\r\nFormat/Info : Advanced Video Codec\r\nFormat profile : Baseline@L3.0\r\nFormat settings, CABAC : No\r\nFormat settings, ReFrames : 1 frame\r\nFormat settings, GOP : M=1, N=12\r\nCodec ID : avc1\r\nCodec ID/Info : Advanced Video Coding\r\nDuration : 11mn 42s\r\nBit rate : 2 000 Kbps\r\nWidth : 852 pixels\r\nHeight : 480 pixels\r\nDisplay aspect ratio : 16:9\r\nFrame rate mode : Constant\r\nFrame rate : 29.970 fps\r\nColor space : YUV\r\nChroma subsampling : 4:2:0\r\nBit depth : 8 bits\r\nScan type : Progressive\r\nBits/(Pixel*Frame) : 0.163\r\nStream size : 169 MiB (95%)\r\nWriting library : x264 core 77\r\nEncoding settings : cabac=0 / ref=1 / deblock=0:0:0 / analyse=0x1:0 / me=dia / subme=8 / psy=1 / psy_rd=1.0:0.0 / mixed_ref=0 / me_range=16 / chroma_me=0 / trellis=0 / 8x8dct=0 / cqm=0 / deadzone=21,11 / chroma_qp_offset=-2 / threads=2 / nr=0 / decimate=1 / mbaff=0 / constrained_intra=0 / bframes=0 / keyint=12 / keyint_min=7 / scenecut=0 / rc_lookahead=29 / rc=cbr / mbtree=1 / bitrate=2000 / ratetol=1.0 / qcomp=0.60 / qpmin=10 / qpmax=51 / qpstep=4 / vbv_maxrate=10000 / vbv_bufsize=10000 / ip_ratio=1.41 / aq=1:1.00\r\nLanguage : German\r\nEncoded date : UTC 1970-01-01 00:00:00\r\nTagged date : UTC 1970-01-01 00:00:00\r\n\r\nAudio\r\nID : 2\r\nFormat : AAC\r\nFormat/Info : Advanced Audio Codec\r\nFormat profile : LC\r\nCodec ID : 40\r\nDuration : 11mn 42s\r\nBit rate mode : Variable\r\nBit rate : 96.0 Kbps\r\nChannel(s) : 2 channels\r\nChannel positions : Front: L R\r\nSampling rate : 44.1 KHz\r\nCompression mode : Lossy\r\nStream size : 8.01 MiB (5%)\r\nLanguage : German\r\nEncoded date : UTC 1970-01-01 00:00:00\r\nTagged date : UTC 1970-01-01 00:00:00\r\n\r\n