Two Teasing Tongues 10 – B

Two Teasing Tongues 10 - AK Two Teasing Tongues 8 A

Posted in HD Porn, Pornstar, Sex Movies, Teen, Threesome | 14420 Views |


Rate this girl !!!




pic\r\n

[K Klixen Productions / clips4sale.com] Cipriana and Jessyka (Two Teasing Tongues 10) [2014 г., Blowjob] B

\r\nTwo Teasing Tongues 10 -B\r\npicImya actress: Cipriana and Jessyka\r\nName movie: Two Teasing Tongues 10\r\nSubsite and site: K Klixen Productions / clips4sale.com\r\nProduction year: 2014\r\nCategory: Blowjob\r\nDuration: 00:48:40\r\nDescription: Cipriana and Jessyka POV oral scene\r\nVideo Format: MP4\r\nVideo codec: H.264 / AVC\r\nAudio codec: AAC\r\nVideo: MPEG4 Video (H264) 852×480 29.97fps 2018kbps\r\nAudio: AAC 44100Hz stereo 95kbps\r\n\r\npic



DOWNLOAD

Keep2share.cc - Uploaded.net - Openload.co - Rapidu.net



http://k2s.cc/file/766045e615e41/Cl1ps.4.S4l3.C1pr14n4%2C.J3ssyk4.Two.T34s1ng.Tongu3s.10.P4rt.B.mp4

http://ul.to/tlwo1ft2/Cl1ps.4.S4l3.C1pr14n4,.J3ssyk4.Two.T34s1ng.Tongu3s.10.P4rt.B.mp4


Premium here:
uploaded.net
keep2share.cc
rapidu.net.cc


Teens related to Two Teasing Tongues 10 – B


HQ Sex Movies Download 4163 ryushare uploaded keep2share

HQ Sex Movies Download 4163

TeensAnalyzed – Nanette – Taking You Closer To Anal [FullHD 1080p] ryushare uploaded keep2share

TeensAnalyzed – Nanette – Taking You Closer To Anal [FullHD 1080p]

Private – Share The Cock And Keep Cum ryushare uploaded keep2share

Private – Share The Cock And Keep Cum

Teen Sex Videos Tube Movies 1466 ryushare uploaded keep2share

Teen Sex Videos Tube Movies 1466

www 18year grils sex vedios 226269 ryushare uploaded keep2share

www 18year grils sex vedios 226269

pon ster xxxxxx ryushare uploaded keep2share

pon ster xxxxxx

Paula Shy – AfterParty – Sex Art ryushare uploaded keep2share

Paula Shy – AfterParty – Sex Art

WebYoung.com Sammie Daniels, Samantha Rone ryushare uploaded keep2share

WebYoung.com Sammie Daniels, Samantha Rone

Good Teen Tube Sexy Young Naked Girls Movies 2535 ryushare uploaded keep2share

Good Teen Tube Sexy Young Naked Girls Movies 2535

1080P full hd hordcore sex movies ryushare uploaded keep2share

1080P full hd hordcore sex movies

www free x video hq hd com 226236 ryushare uploaded keep2share

www free x video hq hd com 226236

Free Young Porn Videos XXX Teen Porn 223975 ryushare uploaded keep2share

Free Young Porn Videos XXX Teen Porn 223975

HD SEX DOWNLOAD 100MB 226490 ryushare uploaded keep2share

HD SEX DOWNLOAD 100MB 226490

sex short clips in high quality ryushare uploaded keep2share

sex short clips in high quality

HD Teen Sex Tube 224831 ryushare uploaded keep2share

HD Teen Sex Tube 224831

Mega – Time To Fuck – Episode 432 ryushare uploaded keep2share

Mega – Time To Fuck – Episode 432

sexy video9 hd xxx in 226643 ryushare uploaded keep2share

sexy video9 hd xxx in 226643

HD Porn Teen Sex Videos 4070 ryushare uploaded keep2share

HD Porn Teen Sex Videos 4070

The best Teen sex 225598 ryushare uploaded keep2share

The best Teen sex 225598

Girls do porn in HD 225372 ryushare uploaded keep2share

Girls do porn in HD 225372

Very hot brunette fucked ryushare uploaded keep2share

Very hot brunette fucked

Free Teen Porn Videos at Teen Sex Tube XXX 225130 ryushare uploaded keep2share

Free Teen Porn Videos at Teen Sex Tube XXX 225130

High Definition Movies on HD 225588 ryushare uploaded keep2share

High Definition Movies on HD 225588

HD Teens Sex Tube Videos XxX 4315 ryushare uploaded keep2share

HD Teens Sex Tube Videos XxX 4315

Porn teen hd downloads 224517 ryushare uploaded keep2share

Porn teen hd downloads 224517

HD Teens Sex Tube Videos XxX 5400 ryushare uploaded keep2share

HD Teens Sex Tube Videos XxX 5400

Hot Teen Sex HD videos 1149 ryushare uploaded keep2share

Hot Teen Sex HD videos 1149

www hd sex vediocom ryushare uploaded keep2share

www hd sex vediocom

Who Let The Dogs Out? – WowGirls ryushare uploaded keep2share

Who Let The Dogs Out? – WowGirls

Hd young videos 2232 ryushare uploaded keep2share

Hd young videos 2232

Free Porn Videos Xxx Movies Pussy Porn 224126 ryushare uploaded keep2share

Free Porn Videos Xxx Movies Pussy Porn 224126

Teen Sex Videos Tube Movies 224992 ryushare uploaded keep2share

Teen Sex Videos Tube Movies 224992

www 18 videos lk ryushare uploaded keep2share

www 18 videos lk

The best Teen sex 6196 ryushare uploaded keep2share

The best Teen sex 6196

Teenage Fuck Clips 1735 ryushare uploaded keep2share

Teenage Fuck Clips 1735

Report broken links / Post a comment

You must be logged in to post a comment.



General\r\nComplete name : D:hd teens porn download free online[K Klixen Productions / clips4sale.com] Cipriana and Jessyka (Two Teasing Tongues 10) [2014 г., Blowjob] B.PArt.B.mp4\r\nFormat : MPEG-4\r\nCodec ID : M4V \r\nFile size : 177 MiB\r\nDuration : 11mn 42s\r\nOverall bit rate mode : Variable\r\nOverall bit rate : 2 116 Kbps\r\nEncoded date : UTC 1970-01-01 00:00:00\r\nTagged date : UTC 1970-01-01 00:00:00\r\n\r\nVideo\r\nID : 1\r\nFormat : AVC\r\nFormat/Info : Advanced Video Codec\r\nFormat profile : Baseline@L3.0\r\nFormat settings, CABAC : No\r\nFormat settings, ReFrames : 1 frame\r\nFormat settings, GOP : M=1, N=12\r\nCodec ID : avc1\r\nCodec ID/Info : Advanced Video Coding\r\nDuration : 11mn 42s\r\nBit rate : 2 000 Kbps\r\nWidth : 852 pixels\r\nHeight : 480 pixels\r\nDisplay aspect ratio : 16:9\r\nFrame rate mode : Constant\r\nFrame rate : 29.970 fps\r\nColor space : YUV\r\nChroma subsampling : 4:2:0\r\nBit depth : 8 bits\r\nScan type : Progressive\r\nBits/(Pixel*Frame) : 0.163\r\nStream size : 169 MiB (95%)\r\nWriting library : x264 core 77\r\nEncoding settings : cabac=0 / ref=1 / deblock=0:0:0 / analyse=0x1:0 / me=dia / subme=8 / psy=1 / psy_rd=1.0:0.0 / mixed_ref=0 / me_range=16 / chroma_me=0 / trellis=0 / 8x8dct=0 / cqm=0 / deadzone=21,11 / chroma_qp_offset=-2 / threads=2 / nr=0 / decimate=1 / mbaff=0 / constrained_intra=0 / bframes=0 / keyint=12 / keyint_min=7 / scenecut=0 / rc_lookahead=29 / rc=cbr / mbtree=1 / bitrate=2000 / ratetol=1.0 / qcomp=0.60 / qpmin=10 / qpmax=51 / qpstep=4 / vbv_maxrate=10000 / vbv_bufsize=10000 / ip_ratio=1.41 / aq=1:1.00\r\nLanguage : German\r\nEncoded date : UTC 1970-01-01 00:00:00\r\nTagged date : UTC 1970-01-01 00:00:00\r\n\r\nAudio\r\nID : 2\r\nFormat : AAC\r\nFormat/Info : Advanced Audio Codec\r\nFormat profile : LC\r\nCodec ID : 40\r\nDuration : 11mn 42s\r\nBit rate mode : Variable\r\nBit rate : 96.0 Kbps\r\nChannel(s) : 2 channels\r\nChannel positions : Front: L R\r\nSampling rate : 44.1 KHz\r\nCompression mode : Lossy\r\nStream size : 8.01 MiB (5%)\r\nLanguage : German\r\nEncoded date : UTC 1970-01-01 00:00:00\r\nTagged date : UTC 1970-01-01 00:00:00\r\n\r\n