Two Teasing Tongues 10 – B

Two Teasing Tongues 10 - AK Two Teasing Tongues 8 A

Posted in HD Porn, Pornstar, Sex Movies, Teen, Threesome | 13806 Views |


Rate this girl !!!


(13 raters, 41 scores, average: 3.15 out of 5, 63.08%)

pic\r\n

[K Klixen Productions / clips4sale.com] Cipriana and Jessyka (Two Teasing Tongues 10) [2014 г., Blowjob] B

\r\nTwo Teasing Tongues 10 -B\r\npicImya actress: Cipriana and Jessyka\r\nName movie: Two Teasing Tongues 10\r\nSubsite and site: K Klixen Productions / clips4sale.com\r\nProduction year: 2014\r\nCategory: Blowjob\r\nDuration: 00:48:40\r\nDescription: Cipriana and Jessyka POV oral scene\r\nVideo Format: MP4\r\nVideo codec: H.264 / AVC\r\nAudio codec: AAC\r\nVideo: MPEG4 Video (H264) 852×480 29.97fps 2018kbps\r\nAudio: AAC 44100Hz stereo 95kbps\r\n\r\npic



DOWNLOAD

Keep2share.cc - Uploaded.net - Openload.co - Rapidu.net



http://k2s.cc/file/766045e615e41/Cl1ps.4.S4l3.C1pr14n4%2C.J3ssyk4.Two.T34s1ng.Tongu3s.10.P4rt.B.mp4

http://ul.to/tlwo1ft2/Cl1ps.4.S4l3.C1pr14n4,.J3ssyk4.Two.T34s1ng.Tongu3s.10.P4rt.B.mp4


Premium here:
uploaded.net
keep2share.cc
rapidu.net.cc

Incoming search terms:

  • two teasing tongues
  • two teasing tongue
  • two tongues teasing
  • Cipriana Jessyka Two Teasing Tongues Klixen
  • Cipriana Jessyka Two Teasing Tongues Part A video
  • two teasing tongues porn hd
  • two teasing tongues klixen
  • two teasing tongues 13 part b
  • two teasing tongues 10 b
  • cipriana jessyka - two teasing tongues 10 part b
  • teasing tongues 10
  • Klixen Daniela Adorable Lips
  • k klixen prod
  • #18blowjob


Teens related to Two Teasing Tongues 10 – B


Young Virgin Pussy Teen Fuck Tube 224545 ryushare uploaded keep2share

Young Virgin Pussy Teen Fuck Tube 224545

Hot Teen Sex HD videos 225940 ryushare uploaded keep2share

Hot Teen Sex HD videos 225940

Lola Taylor – Russian Pornstar ryushare uploaded keep2share

Lola Taylor – Russian Pornstar

Free Young Porn Videos XXX Teen Porn 2569 ryushare uploaded keep2share

Free Young Porn Videos XXX Teen Porn 2569

Hot download sex girls movies 225819 ryushare uploaded keep2share

Hot download sex girls movies 225819

Wow porn hd downloads 225831 ryushare uploaded keep2share

Wow porn hd downloads 225831

Teen xxx sex hd 5239 ryushare uploaded keep2share

Teen xxx sex hd 5239

teenseks1819 226156 ryushare uploaded keep2share

teenseks1819 226156

Young XXX Tube Videos 223682 ryushare uploaded keep2share

Young XXX Tube Videos 223682

Young Sex Movies 225619 ryushare uploaded keep2share

Young Sex Movies 225619

Hot Teen Sex 5187 ryushare uploaded keep2share

Hot Teen Sex 5187

Janna – Real Homemade Sex Tape ryushare uploaded keep2share

Janna – Real Homemade Sex Tape

HD porn teen downloads 2662 ryushare uploaded keep2share

HD porn teen downloads 2662

Kail Takes on Two Horny Studs for some fun ryushare uploaded keep2share

Kail Takes on Two Horny Studs for some fun

Hardcore Sex Hub 225185 ryushare uploaded keep2share

Hardcore Sex Hub 225185

Teena Dolly ryushare uploaded keep2share

Teena Dolly

Xxx x uploded haigh quality photos 226705 ryushare uploaded keep2share

Xxx x uploded haigh quality photos 226705

Hot Teen Sex 2747 ryushare uploaded keep2share

Hot Teen Sex 2747

HD Porn Videos 1271 ryushare uploaded keep2share

HD Porn Videos 1271

HQ Sex Movies Download 3382 ryushare uploaded keep2share

HQ Sex Movies Download 3382

Teen xxx sex hd 5505 ryushare uploaded keep2share

Teen xxx sex hd 5505

HD Teens Sex Tube Videos XxX 225747 ryushare uploaded keep2share

HD Teens Sex Tube Videos XxX 225747

http//sexy hd video phtt sexy hd 12 ayer girls com ryushare uploaded keep2share

http//sexy hd video phtt sexy hd 12 ayer girls com

High Definition Movies on HD 4341 ryushare uploaded keep2share

High Definition Movies on HD 4341

Milagres – A Cool Tool For Me ryushare uploaded keep2share

Milagres – A Cool Tool For Me

Wow porn tube movies 3838 ryushare uploaded keep2share

Wow porn tube movies 3838

waltz autumn sexart ryushare uploaded keep2share

waltz autumn sexart

Sasha Foxxx (Edge Play with Sasha Foxxx) ryushare uploaded keep2share

Sasha Foxxx (Edge Play with Sasha Foxxx)

Lena, Galina – Fucking Together is Awesome ryushare uploaded keep2share

Lena, Galina – Fucking Together is Awesome

Tube Young Sex 3798 ryushare uploaded keep2share

Tube Young Sex 3798

Young Virgin Pussy Teen Fuck Tube 225554 ryushare uploaded keep2share

Young Virgin Pussy Teen Fuck Tube 225554

Teens sex mania 225265 ryushare uploaded keep2share

Teens sex mania 225265

wwwsex beuty hd video 226570 ryushare uploaded keep2share

wwwsex beuty hd video 226570

www hd teen movie download com 226210 ryushare uploaded keep2share

www hd teen movie download com 226210

Small girls and boys porn 4478 ryushare uploaded keep2share

Small girls and boys porn 4478

Report broken links / Post a comment

You must be logged in to post a comment.



General\r\nComplete name : D:hd teens porn download free online[K Klixen Productions / clips4sale.com] Cipriana and Jessyka (Two Teasing Tongues 10) [2014 г., Blowjob] B.PArt.B.mp4\r\nFormat : MPEG-4\r\nCodec ID : M4V \r\nFile size : 177 MiB\r\nDuration : 11mn 42s\r\nOverall bit rate mode : Variable\r\nOverall bit rate : 2 116 Kbps\r\nEncoded date : UTC 1970-01-01 00:00:00\r\nTagged date : UTC 1970-01-01 00:00:00\r\n\r\nVideo\r\nID : 1\r\nFormat : AVC\r\nFormat/Info : Advanced Video Codec\r\nFormat profile : Baseline@L3.0\r\nFormat settings, CABAC : No\r\nFormat settings, ReFrames : 1 frame\r\nFormat settings, GOP : M=1, N=12\r\nCodec ID : avc1\r\nCodec ID/Info : Advanced Video Coding\r\nDuration : 11mn 42s\r\nBit rate : 2 000 Kbps\r\nWidth : 852 pixels\r\nHeight : 480 pixels\r\nDisplay aspect ratio : 16:9\r\nFrame rate mode : Constant\r\nFrame rate : 29.970 fps\r\nColor space : YUV\r\nChroma subsampling : 4:2:0\r\nBit depth : 8 bits\r\nScan type : Progressive\r\nBits/(Pixel*Frame) : 0.163\r\nStream size : 169 MiB (95%)\r\nWriting library : x264 core 77\r\nEncoding settings : cabac=0 / ref=1 / deblock=0:0:0 / analyse=0x1:0 / me=dia / subme=8 / psy=1 / psy_rd=1.0:0.0 / mixed_ref=0 / me_range=16 / chroma_me=0 / trellis=0 / 8x8dct=0 / cqm=0 / deadzone=21,11 / chroma_qp_offset=-2 / threads=2 / nr=0 / decimate=1 / mbaff=0 / constrained_intra=0 / bframes=0 / keyint=12 / keyint_min=7 / scenecut=0 / rc_lookahead=29 / rc=cbr / mbtree=1 / bitrate=2000 / ratetol=1.0 / qcomp=0.60 / qpmin=10 / qpmax=51 / qpstep=4 / vbv_maxrate=10000 / vbv_bufsize=10000 / ip_ratio=1.41 / aq=1:1.00\r\nLanguage : German\r\nEncoded date : UTC 1970-01-01 00:00:00\r\nTagged date : UTC 1970-01-01 00:00:00\r\n\r\nAudio\r\nID : 2\r\nFormat : AAC\r\nFormat/Info : Advanced Audio Codec\r\nFormat profile : LC\r\nCodec ID : 40\r\nDuration : 11mn 42s\r\nBit rate mode : Variable\r\nBit rate : 96.0 Kbps\r\nChannel(s) : 2 channels\r\nChannel positions : Front: L R\r\nSampling rate : 44.1 KHz\r\nCompression mode : Lossy\r\nStream size : 8.01 MiB (5%)\r\nLanguage : German\r\nEncoded date : UTC 1970-01-01 00:00:00\r\nTagged date : UTC 1970-01-01 00:00:00\r\n\r\n