Very hot brunette fucked

Big tits blonde with pierced nipplesBeautiful small tits

Posted in Amateur, HD Porn, Sex Movies, Teen | 22901 Views |


Rate this girl !!!




\r\n\r\nhttp://img101.imagetwist.com/i/05150/l1gi97g50oa2.jpg\r\n\r\n Link(406 Mb||01:13:11||640*360||MP4) \r\n\r\nVery hot brunette fucked



DOWNLOAD

Keep2share.cc - Uploaded.net - Openload.co - Rapidu.net


http://keep2share.cc/file/52e5cfd367889
http://ryushare.com/8mgj5xieua9y/PTCGRStn.rar
http://ul.to/i45hf1zp


Premium here:
uploaded.net
keep2share.cc
rapidu.net.cc

Teens related to Very hot brunette fucked


Check Out What Ive Learned ryushare uploaded keep2share

Check Out What Ive Learned

Alexis Brill – WUNF 101 ryushare uploaded keep2share

Alexis Brill – WUNF 101

HD sex movies downloads 3452 ryushare uploaded keep2share

HD sex movies downloads 3452

Young XXX Tube Videos 3935 ryushare uploaded keep2share

Young XXX Tube Videos 3935

SEX HD V MOVIE PC COM 226146 ryushare uploaded keep2share

SEX HD V MOVIE PC COM 226146

download teen hd porn video small size ryushare uploaded keep2share

download teen hd porn video small size

Teen porn xxx 224307 ryushare uploaded keep2share

Teen porn xxx 224307

Young teens tube hot girls free porn video 224172 ryushare uploaded keep2share

Young teens tube hot girls free porn video 224172

xvideo hd movies free download 226781 ryushare uploaded keep2share

xvideo hd movies free download 226781

Young xxx 224169 ryushare uploaded keep2share

Young xxx 224169

sekxi hd video porn ryushare uploaded keep2share

sekxi hd video porn

Young XXX Tube Videos 3564 ryushare uploaded keep2share

Young XXX Tube Videos 3564

tits free ryushare uploaded keep2share

tits free

Xxx videos 360 video size ryushare uploaded keep2share

Xxx videos 360 video size

Nude Teens fucking hard 5025 ryushare uploaded keep2share

Nude Teens fucking hard 5025

Argentina loves showing off her nice big boobs ryushare uploaded keep2share

Argentina loves showing off her nice big boobs

Teen Sex Porn Videos Free Nude Teens 224533 ryushare uploaded keep2share

Teen Sex Porn Videos Free Nude Teens 224533

Hardcore sex videos in the high definition quality 1804 ryushare uploaded keep2share

Hardcore sex videos in the high definition quality 1804

WowPorn.com Michelle,The Primal Need For Love. RED ryushare uploaded keep2share

WowPorn.com Michelle,The Primal Need For Love. RED

Hd quality – Teen sex video 223701 ryushare uploaded keep2share

Hd quality – Teen sex video 223701

Hardcore Sex Hub 225296 ryushare uploaded keep2share

Hardcore Sex Hub 225296

pc hd fucking clip 226607 ryushare uploaded keep2share

pc hd fucking clip 226607

Teen Tits Tube, Young Girls Porn Videos 225601 ryushare uploaded keep2share

Teen Tits Tube, Young Girls Porn Videos 225601

Teen Sex Movies 3822 ryushare uploaded keep2share

Teen Sex Movies 3822

Young Virgin Pussy Teen Fuck Tube 1473 ryushare uploaded keep2share

Young Virgin Pussy Teen Fuck Tube 1473

Hot Teen Sex HD videos 224298 ryushare uploaded keep2share

Hot Teen Sex HD videos 224298

poran sacool 226118 ryushare uploaded keep2share

poran sacool 226118

Hardcore sex videos in the high definition quality 224887 ryushare uploaded keep2share

Hardcore sex videos in the high definition quality 224887

Free Teen Porn Videos at Teen Sex Tube XXX 5283 ryushare uploaded keep2share

Free Teen Porn Videos at Teen Sex Tube XXX 5283

Girls sex art hd teens videos 223832 ryushare uploaded keep2share

Girls sex art hd teens videos 223832

Free Porn Videos Xxx Movies Pussy Porn 1860 ryushare uploaded keep2share

Free Porn Videos Xxx Movies Pussy Porn 1860

Teen Sex Movies 224817 ryushare uploaded keep2share

Teen Sex Movies 224817

Wow porn tube movies 223856 ryushare uploaded keep2share

Wow porn tube movies 223856

Teen Sex Movies 225206 ryushare uploaded keep2share

Teen Sex Movies 225206

Wow porn tube movies 3838 ryushare uploaded keep2share

Wow porn tube movies 3838

Report broken links / Post a comment

You must be logged in to post a comment.



General\r\nComplete name : D:Very hot brunette fuckedPTCGRStnPTCGRStn.mp4\r\nFormat : MPEG-4\r\nCodec ID : M4V \r\nFile size : 406 MiB\r\nDuration : 1h 13mn\r\nOverall bit rate mode : Variable\r\nOverall bit rate : 777 Kbps\r\nMovie name : Teanna ECG Streaming \r\nEncoded date : UTC 2014-01-22 07:23:47\r\nTagged date : UTC 2014-01-22 07:23:52\r\nCopyright : ExploitedCollegeGirls.com. All rights reserved.\r\n©TIM : 00:00:00:00\r\n©TSC : 30000\r\n©TSZ : 1001\r\n\r\nVideo\r\nID : 1\r\nFormat : AVC\r\nFormat/Info : Advanced Video Codec\r\nFormat profile : Main@L3.1\r\nFormat settings, CABAC : No\r\nFormat settings, ReFrames : 2 frames\r\nFormat settings, GOP : M=1, N=30\r\nCodec ID : avc1\r\nCodec ID/Info : Advanced Video Coding\r\nDuration : 1h 13mn\r\nBit rate mode : Variable\r\nBit rate : 696 Kbps\r\nMaximum bit rate : 1 400 Kbps\r\nWidth : 640 pixels\r\nHeight : 360 pixels\r\nDisplay aspect ratio : 16:9\r\nFrame rate mode : Variable\r\nFrame rate : 29.970 fps\r\nMinimum frame rate : 29.970 fps\r\nMaximum frame rate : 30.000 fps\r\nStandard : NTSC\r\nColor space : YUV\r\nChroma subsampling : 4:2:0\r\nBit depth : 8 bits\r\nScan type : Progressive\r\nBits/(Pixel*Frame) : 0.101\r\nStream size : 364 MiB (90%)\r\nLanguage : English\r\nEncoded date : UTC 2014-01-22 07:23:47\r\nTagged date : UTC 2014-01-22 07:23:47\r\n\r\nAudio\r\nID : 2\r\nFormat : AAC\r\nFormat/Info : Advanced Audio Codec\r\nFormat profile : LC\r\nCodec ID : 40\r\nDuration : 1h 13mn\r\nBit rate mode : Variable\r\nBit rate : 77.4 Kbps\r\nMaximum bit rate : 138 Kbps\r\nChannel(s) : 2 channels\r\nChannel positions : Front: L R\r\nSampling rate : 48.0 KHz\r\nCompression mode : Lossy\r\nStream size : 40.5 MiB (10%)\r\nLanguage : English\r\nEncoded date : UTC 2014-01-22 07:23:47\r\nTagged date : UTC 2014-01-22 07:23:47\r\n\r\n