Victoria Paradice – Where Did That Ass Come From

Audrina Grace – Better Than Breakfast In BedSara Luvv, Teddi Rae

Posted in Amateur, HD Porn, Sex Movies, Teen | 6969 Views |


Rate this girl !!!


(19 raters, 63 scores, average: 3.32 out of 5, 66.32%)

cover

1920x1080p / MP4 / 1009.36 MB

[ShesNew.com] Victoria Paradice – Where Did That Ass Come From?

 

SCREENSHOTS:

screens



DOWNLOAD

Keep2share.cc - Uploaded.net - Openload.co - Rapidu.net



Premium here:
uploaded.net
keep2share.cc
rapidu.net.cc

Incoming search terms:

  • victoria paradice
  • victoria paradice porn
  • Where Did That Ass Come From? victoria paradice


Teens related to Victoria Paradice – Where Did That Ass Come From


1080p porn free dounloaded videos ryushare uploaded keep2share

1080p porn free dounloaded videos

Hot Teen Sex 3965 ryushare uploaded keep2share

Hot Teen Sex 3965

Young XXX Tube Videos 3230 ryushare uploaded keep2share

Young XXX Tube Videos 3230

teen porn hard fuck pics 226127 ryushare uploaded keep2share

teen porn hard fuck pics 226127

Good Teen Tube Sexy Young Naked Girls Movies 4454 ryushare uploaded keep2share

Good Teen Tube Sexy Young Naked Girls Movies 4454

Wow porn tube movies 225396 ryushare uploaded keep2share

Wow porn tube movies 225396

Teen Sex Movies Young Porn Tube Vids 4969 ryushare uploaded keep2share

Teen Sex Movies Young Porn Tube Vids 4969

Teen Sex Movies 2122 ryushare uploaded keep2share

Teen Sex Movies 2122

Wow porn tube movies 225566 ryushare uploaded keep2share

Wow porn tube movies 225566

Fat Cock vs Horny Pussies ryushare uploaded keep2share

Fat Cock vs Horny Pussies

Sasha Foxxx (Edging 101 with Sasha Foxxx) ryushare uploaded keep2share

Sasha Foxxx (Edging 101 with Sasha Foxxx)

Young Sex Movies 2030 ryushare uploaded keep2share

Young Sex Movies 2030

Teenies Videos – Teen Porn, Teen Sex, XXX Free Videos 4444 ryushare uploaded keep2share

Teenies Videos – Teen Porn, Teen Sex, XXX Free Videos 4444

Free Porn Videos Xxx Movies Pussy Porn 1860 ryushare uploaded keep2share

Free Porn Videos Xxx Movies Pussy Porn 1860

The best Teen sex 3727 ryushare uploaded keep2share

The best Teen sex 3727

pc full hd video xxx download ryushare uploaded keep2share

pc full hd video xxx download

Teen porn movies 1676 ryushare uploaded keep2share

Teen porn movies 1676

Small girls and boys porn 3525 ryushare uploaded keep2share

Small girls and boys porn 3525

Beata Undine – cumshot compilation ryushare uploaded keep2share

Beata Undine – cumshot compilation

Sweet Teen Porn – Young Porn Videos 4437 ryushare uploaded keep2share

Sweet Teen Porn – Young Porn Videos 4437

Young xxx 224648 ryushare uploaded keep2share

Young xxx 224648

HD Porn Teen Sex Videos 2853 ryushare uploaded keep2share

HD Porn Teen Sex Videos 2853

video9 inx ryushare uploaded keep2share

video9 inx

Chelsea – First & Forever ryushare uploaded keep2share

Chelsea – First & Forever

Hardcore sex videos in the high definition quality 1260 ryushare uploaded keep2share

Hardcore sex videos in the high definition quality 1260

Amateur Teen Sex 225702 ryushare uploaded keep2share

Amateur Teen Sex 225702

TrickyMasseur.com January ryushare uploaded keep2share

TrickyMasseur.com January

High Definition Movies on HD Teen Porn XXX Tube 1249 ryushare uploaded keep2share

High Definition Movies on HD Teen Porn XXX Tube 1249

klixen cipriana and cindy 226252 ryushare uploaded keep2share

klixen cipriana and cindy 226252

proun hup xxx video mp4 ryushare uploaded keep2share

proun hup xxx video mp4

Hot Teen Sex HD videos 224236 ryushare uploaded keep2share

Hot Teen Sex HD videos 224236

www teen fuckhd image gallary com 226522 ryushare uploaded keep2share

www teen fuckhd image gallary com 226522

wwwten sex hd com 226451 ryushare uploaded keep2share

wwwten sex hd com 226451

Evening at home with brunette ryushare uploaded keep2share

Evening at home with brunette

Brunette Shelia Gets a Big Load Of Cum ryushare uploaded keep2share

Brunette Shelia Gets a Big Load Of Cum

Report broken links / Post a comment

You must be logged in to post a comment.



General
Complete name : D:[ShesNew.com] Victoria Paradice – Where Did That Ass Come From? hd teens download online 1080hd.mp4
Format : MPEG-4
Format profile : Base Media / Version 2
Codec ID : mp42
File size : 1 009 MiB
Duration : 13mn 55s
Overall bit rate mode : Variable
Overall bit rate : 10.1 Mbps
Encoded date : UTC 2014-04-24 05:55:35
Tagged date : UTC 2014-04-24 05:55:35
Writing library : Apple QuickTime

Video
ID : 1
Format : AVC
Format/Info : Advanced Video Codec
Format profile : Main@L4.0
Format settings, CABAC : No
Format settings, ReFrames : 2 frames
Codec ID : avc1
Codec ID/Info : Advanced Video Coding
Duration : 13mn 55s
Bit rate : 9 998 Kbps
Width : 1 920 pixels
Height : 1 080 pixels
Display aspect ratio : 16:9
Frame rate mode : Constant
Frame rate : 23.976 fps
Standard : NTSC
Color space : YUV
Chroma subsampling : 4:2:0
Bit depth : 8 bits
Scan type : Progressive
Bits/(Pixel*Frame) : 0.201
Stream size : 996 MiB (99%)
Language : English
Encoded date : UTC 2014-04-24 05:55:35
Tagged date : UTC 2014-04-24 05:55:35
mdhd_Duration : 835878

Audio
ID : 2
Format : AAC
Format/Info : Advanced Audio Codec
Format profile : LC
Codec ID : 40
Duration : 13mn 55s
Bit rate mode : Variable
Bit rate : 128 Kbps
Maximum bit rate : 132 Kbps
Channel(s) : 2 channels
Channel positions : Front: L R
Sampling rate : 44.1 KHz
Compression mode : Lossy
Stream size : 12.8 MiB (1%)
Language : English
Encoded date : UTC 2014-04-24 05:55:35
Tagged date : UTC 2014-04-24 05:55:35

Other #1
ID : 3
Type : Object description
Format : System Core
Codec ID : 2
Duration : 13mn 55s
Language : English
Encoded date : UTC 2014-04-24 05:55:35
Tagged date : UTC 2014-04-24 05:55:35
mdhd_Duration : 1000

Other #2
ID : 4
Type : Scene description
Format : System Core
Codec ID : 2
Duration : 13mn 55s
Language : English
Encoded date : UTC 2014-04-24 05:55:35
Tagged date : UTC 2014-04-24 05:55:35
mdhd_Duration : 1000