Watch Teen Sex Videos HD 1226

High Definition Movies on HD Teen Porn XXX Tube 1229Young teens tube hot girls free porn video 1223

Posted in Amateur, HD Porn, Sex Movies, Teen | Posted on 03-02-2014 | 566 Views | FavoriteLoadingAdd to favorites

Rate this girl !!!



(No Ratings Yet)


Watch Teen Sex Videos HD 1226 teen hd porn sex movies hd porn amateur hd porn

Watch Teen Sex Videos HD 1226 teen hd porn sex movies hd porn amateur hd porn

Link(242 Mb||16:27||960*540||MP4)




Premium here:
uploaded.net
keep2share.cc

Incoming search terms:

  • teen girls hd porn
  • xxx sex porn teens 13
  • porn hd pics teen
  • Teen porn 1080p
  • sexse davet flim
  • prono sex video mp3
  • porn public Agent
  • Full hd hot sexgirls
  • Dont Tell Your Sister Seriously porn online
  • babes com porn sex
  • 1947 sex hot video


Teens related to Watch Teen Sex Videos HD 1226


Report broken links / Post a comment

You must be logged in to post a comment.



General
Complete name : D:HD TeenMania Porn Sex videosxxxRNTBSDnyRNTBSDny.mp4
Format : MPEG-4
Format profile : Base Media
Codec ID : isom
File size : 242 MiB
Duration : 16mn 27s
Overall bit rate : 2 057 Kbps
Writing application : XviD4PSP 6.0 / 53.6.0
Xtra : WM/MediaClassPrimaryID

Video
ID : 1
Format : AVC
Format/Info : Advanced Video Codec
Format profile : High@L4.1
Format settings, CABAC : Yes
Format settings, ReFrames : 3 frames
Codec ID : avc1
Codec ID/Info : Advanced Video Coding
Duration : 16mn 27s
Bit rate : 2 000 Kbps
Width : 960 pixels
Height : 540 pixels
Display aspect ratio : 16:9
Frame rate mode : Constant
Frame rate : 25.000 fps
Color space : YUV
Chroma subsampling : 4:2:0
Bit depth : 8 bits
Scan type : Progressive
Bits/(Pixel*Frame) : 0.154
Stream size : 226 MiB (94%)
Writing library : x264 core 116 r2019M 9cc407d
Encoding settings : cabac=1 / ref=3 / deblock=1:0:0 / analyse=0x3:0x133 / me=hex / subme=7 / psy=1 / psy_rd=1.00:0.20 / mixed_ref=1 / me_range=16 / chroma_me=1 / trellis=1 / 8x8dct=1 / cqm=0 / deadzone=21,11 / fast_pskip=1 / chroma_qp_offset=-3 / threads=8 / sliced_threads=0 / nr=0 / decimate=1 / interlaced=0 / bluray_compat=0 / constrained_intra=0 / bframes=3 / b_pyramid=1 / b_adapt=2 / b_bias=0 / direct=3 / weightb=1 / open_gop=0 / weightp=2 / keyint=250 / keyint_min=25 / scenecut=40 / intra_refresh=0 / rc_lookahead=40 / rc=cbr / mbtree=1 / bitrate=2000 / ratetol=1.0 / qcomp=0.60 / qpmin=10 / qpmax=51 / qpstep=4 / vbv_maxrate=2000 / vbv_bufsize=2000 / nal_hrd=none / ip_ratio=1.40 / aq=1:1.00

Audio
ID : 2
Format : MPEG Audio
Format version : Version 1
Format profile : Layer 3
Mode : Joint stereo
Mode extension : MS Stereo
Codec ID : 6B
Duration : 16mn 27s
Bit rate mode : Constant
Bit rate : 128 Kbps
Channel(s) : 2 channels
Sampling rate : 44.1 KHz
Compression mode : Lossy
Stream size : 15.1 MiB (6%)