Watch Teen Sex Videos HD 1595

Teenies Videos - Teen Porn, Teen Sex, XXX Free Videos 1601Teenage Fuck Clips 1591

Posted in HD Porn, Pornstar, Sex Movies, Teen | 16353 Views |


Rate this girl !!!




\r\n\r\n\r\n\r\n\r\nhttp://img102.imagetwist.com/i/05243/fs59edd0d61u.jpeg\r\n\r\n Link(554 Mb||17:58||1280*720||MP4)



DOWNLOAD

Keep2share.cc - Uploaded.net - Openload.co - Rapidu.net


http://keep2share.cc/file/244ef6cc9b84c
http://ryushare.com/dn7exl5wwa9t/BSGBRNmr.rar
http://ul.to/1ix6aote


Premium here:
uploaded.net
keep2share.cc
rapidu.net.cc


Teens related to Watch Teen Sex Videos HD 1595


Hardcore sex videos in the high definition quality 1260 ryushare uploaded keep2share

Hardcore sex videos in the high definition quality 1260

Young XXX Tube Videos 224700 ryushare uploaded keep2share

Young XXX Tube Videos 224700

The best Teen sex 223940 ryushare uploaded keep2share

The best Teen sex 223940

Kiara Lord – Rock my world ryushare uploaded keep2share

Kiara Lord – Rock my world

[RylskyArt.com] Solana – Kasanya ryushare uploaded keep2share

[RylskyArt.com] Solana – Kasanya

Teen Sex Movies Young Porn Tube Vids 5179 ryushare uploaded keep2share

Teen Sex Movies Young Porn Tube Vids 5179

[Castingcouch-X.com] Alex Tanner ryushare uploaded keep2share

[Castingcouch-X.com] Alex Tanner

bbb hd sex 226562 ryushare uploaded keep2share

bbb hd sex 226562

[Spizoo.com]  (Romi Rain Hires A Gigolo / 01.12.2016) ryushare uploaded keep2share

[Spizoo.com] (Romi Rain Hires A Gigolo / 01.12.2016)

Teen Porn XXX Tube 2208 ryushare uploaded keep2share

Teen Porn XXX Tube 2208

HD Teen Sex Tube 5272 ryushare uploaded keep2share

HD Teen Sex Tube 5272

Adele Sunshine – George on Adele ryushare uploaded keep2share

Adele Sunshine – George on Adele

Girls sex art hd teens videos 225284 ryushare uploaded keep2share

Girls sex art hd teens videos 225284

Real Bushy Beavers 18 – Timea Bella ryushare uploaded keep2share

Real Bushy Beavers 18 – Timea Bella

Private – Share The Cock And Keep Cum ryushare uploaded keep2share

Private – Share The Cock And Keep Cum

HD Porn Video 1352 ryushare uploaded keep2share

HD Porn Video 1352

Young teens tube hot girls free porn video 5527 ryushare uploaded keep2share

Young teens tube hot girls free porn video 5527

High Definition Movies on HD 1969 ryushare uploaded keep2share

High Definition Movies on HD 1969

Hd quality – Teen sex video 224703 ryushare uploaded keep2share

Hd quality – Teen sex video 224703

Teen Porn XXX Tube 1144 ryushare uploaded keep2share

Teen Porn XXX Tube 1144

Hot Teen Sex HD videos 2905 ryushare uploaded keep2share

Hot Teen Sex HD videos 2905

www pinkwordcom 226327 ryushare uploaded keep2share

www pinkwordcom 226327

Ariana Marie – Post Workout Sex ryushare uploaded keep2share

Ariana Marie – Post Workout Sex

Free Porn Videos Xxx Movies Pussy Porn 3704 ryushare uploaded keep2share

Free Porn Videos Xxx Movies Pussy Porn 3704

Hardcore Sex Hub 5391 ryushare uploaded keep2share

Hardcore Sex Hub 5391

HD porn uploaded 3036 ryushare uploaded keep2share

HD porn uploaded 3036

Young Sex Movies 2737 ryushare uploaded keep2share

Young Sex Movies 2737

Young Virgin Pussy Teen Fuck Tube 225554 ryushare uploaded keep2share

Young Virgin Pussy Teen Fuck Tube 225554

HQ Sex Movies Download 5339 ryushare uploaded keep2share

HQ Sex Movies Download 5339

Masha – Fucking like elite whore ryushare uploaded keep2share

Masha – Fucking like elite whore

Teen porn movies 2671 ryushare uploaded keep2share

Teen porn movies 2671

[BlacksOnBlondes.com / DogFartNetwork.com] Natasha Nice (2016-11-29) [2016 г., Anal, 1 on 1, Big Tits, Brunette, Petite, Facial, No Tattoos, Shaved, ATM, 720p] ryushare uploaded keep2share

[BlacksOnBlondes.com / DogFartNetwork.com] Natasha Nice (2016-11-29) [2016 г., Anal, 1 on 1, Big Tits, Brunette, Petite, Facial, No Tattoos, Shaved, ATM, 720p]

antartika poeno sex 226048 ryushare uploaded keep2share

antartika poeno sex 226048

Small girls and boys porn 4002 ryushare uploaded keep2share

Small girls and boys porn 4002

Sara Luvv, Teddi Rae ryushare uploaded keep2share

Sara Luvv, Teddi Rae

Report broken links / Post a comment

You must be logged in to post a comment.



General\r\nComplete name : D:HD Teens Download Porn Sex clips movies Tube.xxxBSGBRNmrBSGBRNmr.mp4\r\nFormat : MPEG-4\r\nFormat profile : Base Media\r\nCodec ID : isom\r\nFile size : 554 MiB\r\nDuration : 17mn 58s\r\nOverall bit rate : 4 306 Kbps\r\nWriting application : Lavf55.7.100\r\n\r\nVideo\r\nID : 1\r\nFormat : AVC\r\nFormat/Info : Advanced Video Codec\r\nFormat profile : High@L4.1\r\nFormat settings, CABAC : Yes\r\nFormat settings, ReFrames : 5 frames\r\nCodec ID : avc1\r\nCodec ID/Info : Advanced Video Coding\r\nDuration : 17mn 58s\r\nBit rate : 4 000 Kbps\r\nWidth : 1 280 pixels\r\nHeight : 720 pixels\r\nDisplay aspect ratio : 16:9\r\nFrame rate mode : Constant\r\nFrame rate : 29.970 fps\r\nColor space : YUV\r\nChroma subsampling : 4:2:0\r\nBit depth : 8 bits\r\nScan type : Progressive\r\nBits/(Pixel*Frame) : 0.145\r\nStream size : 514 MiB (93%)\r\nWriting library : x264 core 133 r2334 a3ac64b\r\nEncoding settings : cabac=1 / ref=5 / deblock=1:0:0 / analyse=0x3:0x113 / me=umh / subme=8 / psy=1 / psy_rd=1.00:0.00 / mixed_ref=1 / me_range=16 / chroma_me=1 / trellis=1 / 8x8dct=1 / cqm=0 / deadzone=21,11 / fast_pskip=1 / chroma_qp_offset=-2 / threads=6 / lookahead_threads=1 / sliced_threads=0 / nr=0 / decimate=1 / interlaced=0 / bluray_compat=0 / constrained_intra=0 / bframes=3 / b_pyramid=2 / b_adapt=2 / b_bias=0 / direct=3 / weightb=1 / open_gop=0 / weightp=2 / keyint=60 / keyint_min=6 / scenecut=40 / intra_refresh=0 / rc_lookahead=50 / rc=abr / mbtree=1 / bitrate=4000 / ratetol=1.0 / qcomp=0.60 / qpmin=0 / qpmax=69 / qpstep=4 / ip_ratio=1.40 / aq=1:1.00\r\nLanguage : English\r\nTagged date : UTC 2014-01-23 02:40:23\r\n\r\nAudio\r\nID : 2\r\nFormat : AAC\r\nFormat/Info : Advanced Audio Codec\r\nFormat profile : LC\r\nCodec ID : 40\r\nDuration : 17mn 58s\r\nDuration_LastFrame : -9ms\r\nBit rate mode : Constant\r\nBit rate : 128 Kbps\r\nChannel(s) : 2 channels\r\nChannel positions : Front: L R\r\nSampling rate : 48.0 KHz\r\nCompression mode : Lossy\r\nStream size : 16.5 MiB (3%)\r\nLanguage : English\r\nTagged date : UTC 2014-01-23 02:40:23\r\n\r\n