Watch Teen Sex Videos HD 3515

Small girls and boys porn 3525Wow porn tube movies 3516

Posted in Amateur, HD Porn, Sex Movies, Teen, Threesome | 6812 Views |


Rate this girl !!!


(10 raters, 25 scores, average: 2.50 out of 5, 50%)

Size: 2488 MB | Duration: 01:06:03 | Quality: 1280×720 | Format: Wmv

 



DOWNLOAD

Keep2share.cc - Uploaded.net - Openload.co - Rapidu.net



Premium here:
uploaded.net
keep2share.cc
rapidu.net.cc

Incoming search terms:

  • watchteensex v
  • watchteensexs video
  • xxx HD 3515 videos
  • hdsexjpang


Teens related to Watch Teen Sex Videos HD 3515


hq hd sexi 18 vidio daonlod com ryushare uploaded keep2share

hq hd sexi 18 vidio daonlod com

Hot Teen Sex HD videos 225252 ryushare uploaded keep2share

Hot Teen Sex HD videos 225252

Girls sex art hd teens videos 224625 ryushare uploaded keep2share

Girls sex art hd teens videos 224625

Teen Sex Videos Tube Movies 225875 ryushare uploaded keep2share

Teen Sex Videos Tube Movies 225875

Amateur Teen Sex 225702 ryushare uploaded keep2share

Amateur Teen Sex 225702

Girls sex art hd teens videos 224410 ryushare uploaded keep2share

Girls sex art hd teens videos 224410

XXX young porn sex 3841 ryushare uploaded keep2share

XXX young porn sex 3841

Girls sex art hd teens videos 224551 ryushare uploaded keep2share

Girls sex art hd teens videos 224551

Www Xxxsex video18 ryushare uploaded keep2share

Www Xxxsex video18

Porn teen hd downloads 5256 ryushare uploaded keep2share

Porn teen hd downloads 5256

b f sex hot movie download ryushare uploaded keep2share

b f sex hot movie download

yunga grls porn sex com ryushare uploaded keep2share

yunga grls porn sex com

Teen Tits Tube, Young Girls Porn Videos 3993 ryushare uploaded keep2share

Teen Tits Tube, Young Girls Porn Videos 3993

HD Porn Teen Sex Videos 225821 ryushare uploaded keep2share

HD Porn Teen Sex Videos 225821

Close Ups, Blowjob, Shaved, Creampie, Stockings, 1080p ryushare uploaded keep2share

Close Ups, Blowjob, Shaved, Creampie, Stockings, 1080p

Hot Teen Sex 2164 ryushare uploaded keep2share

Hot Teen Sex 2164

tube sex 17 girl ryushare uploaded keep2share

tube sex 17 girl

Teens in Porno young porn videos and free teen sex 5409 ryushare uploaded keep2share

Teens in Porno young porn videos and free teen sex 5409

Young 720p hd porn 4148 ryushare uploaded keep2share

Young 720p hd porn 4148

Young XXX Tube Videos 223682 ryushare uploaded keep2share

Young XXX Tube Videos 223682

HD Porn Teen Sex Videos 225413 ryushare uploaded keep2share

HD Porn Teen Sex Videos 225413

Beautiful small tits ryushare uploaded keep2share

Beautiful small tits

Whitney Conroy & Alexis Crystal – Sheets In The Wind ryushare uploaded keep2share

Whitney Conroy & Alexis Crystal – Sheets In The Wind

Movies Young legal porn 5451 ryushare uploaded keep2share

Movies Young legal porn 5451

Beata Fucking in swimming pool ryushare uploaded keep2share

Beata Fucking in swimming pool

HD Porn Videos 5664 ryushare uploaded keep2share

HD Porn Videos 5664

Free Teen Porn Videos at Teen Sex Tube XXX 1416 ryushare uploaded keep2share

Free Teen Porn Videos at Teen Sex Tube XXX 1416

Hot Teen Sex HD videos 225223 ryushare uploaded keep2share

Hot Teen Sex HD videos 225223

Kennedy Leigh – Out With A Bang ryushare uploaded keep2share

Kennedy Leigh – Out With A Bang

Wow girls downloads hd 224848 ryushare uploaded keep2share

Wow girls downloads hd 224848

Teen porn xxx 225068 ryushare uploaded keep2share

Teen porn xxx 225068

Sandy Sweet – To Have And To Fuck ryushare uploaded keep2share

Sandy Sweet – To Have And To Fuck

Teen porn xxx 225534 ryushare uploaded keep2share

Teen porn xxx 225534

HD Porn Teen Sex Videos 3944 ryushare uploaded keep2share

HD Porn Teen Sex Videos 3944

boy xxx walpapr 226621 ryushare uploaded keep2share

boy xxx walpapr 226621

Report broken links / Post a comment

You must be logged in to post a comment.



General
Complete name : D:hd teen mania porn babes ryushare keep2share uploaded easybytez fileomP.o.ol P.ar.ty.wmv
Format : Windows Media
File size : 2.43 GiB
Duration : 1h 6mn
Overall bit rate mode : Constant
Overall bit rate : 5 266 Kbps
Maximum Overall bit rate : 5 286 Kbps
Encoded date : UTC 2009-10-02 23:37:53.948
SfOriginalFPS : 299700

Video
ID : 2
Format : VC-1
Format profile : MP@HL
Codec ID : WMV3
Codec ID/Info : Windows Media Video 9
Codec ID/Hint : WMV3
Description of the codec : Windows Media Video 9 - Professional
Duration : 1h 6mn
Bit rate mode : Constant
Bit rate : 5 051 Kbps
Width : 1 280 pixels
Height : 720 pixels
Display aspect ratio : 16:9
Frame rate : 29.970 fps
Color space : YUV
Chroma subsampling : 4:2:0
Bit depth : 8 bits
Scan type : Progressive
Compression mode : Lossy
Bits/(Pixel*Frame) : 0.183
Stream size : 2.33 GiB (96%)
Language : English (US)

Audio
ID : 1
Format : WMA
Format version : Version 2
Codec ID : 161
Codec ID/Info : Windows Media Audio
Description of the codec : Windows Media Audio 9.2 - 192 kbps, 48 kHz, stereo (A/V) 1-pass CBR
Duration : 1h 6mn
Bit rate mode : Constant
Bit rate : 192 Kbps
Channel(s) : 2 channels
Sampling rate : 48.0 KHz
Bit depth : 16 bits
Stream size : 90.7 MiB (4%)
Language : English (US)