Welcome To The Wild / Beata

Two Boys & One Girl - X-ArtBeata Undine - cumshot compilation

Posted in HD Porn, Pornstar, Sex Movies, Teen | 14174 Views |


Rate this girl !!!


(77 raters, 288 scores, average: 3.74 out of 5, 74.81%)

[18OnlyGirls.com / WowFandom.com] Beata (Welcome To The Wild / 31.12.13) [2013, All Sex, 720p]

pic

Duration: 00:20:41
Type HD video: 720p
Video Format: MP4
Video codec: H.264/AVC
Audio codec: AAC
Video: MPEG4 Video (H264) 1280×720 29.97fps 4310kbps
Audio: AAC 44100Hz stereo 90kbps



DOWNLOAD

Keep2share.cc - Uploaded.net - Openload.co - Rapidu.net



Premium here:
uploaded.net
keep2share.cc
rapidu.net.cc

Teens related to Welcome To The Wild / Beata


Teen Sex Porn Videos Free Nude Teens 3857 ryushare uploaded keep2share

Teen Sex Porn Videos Free Nude Teens 3857

Great Girlish Enthusiasm ryushare uploaded keep2share

Great Girlish Enthusiasm

The best Teen sex 225598 ryushare uploaded keep2share

The best Teen sex 225598

Girls do porn in HD 224304 ryushare uploaded keep2share

Girls do porn in HD 224304

HD Teens Sex Tube Videos XxX 3653 ryushare uploaded keep2share

HD Teens Sex Tube Videos XxX 3653

baby hd mp4 deflortioan sex 226670 ryushare uploaded keep2share

baby hd mp4 deflortioan sex 226670

Young xxx 225249 ryushare uploaded keep2share

Young xxx 225249

PC HD MP4 XXX COM 226748 ryushare uploaded keep2share

PC HD MP4 XXX COM 226748

Watch Teen Sex Videos HD 4135 ryushare uploaded keep2share

Watch Teen Sex Videos HD 4135

Teen Sex Movies 223765 ryushare uploaded keep2share

Teen Sex Movies 223765

Nude Teens fucking hard 224900 ryushare uploaded keep2share

Nude Teens fucking hard 224900

Porn HD Sex HD Teen Sex 2573 ryushare uploaded keep2share

Porn HD Sex HD Teen Sex 2573

www hdsexse vidio 226293 ryushare uploaded keep2share

www hdsexse vidio 226293

ww poran xxx hd com 226538 ryushare uploaded keep2share

ww poran xxx hd com 226538

Young XXX Tube Videos 3540 ryushare uploaded keep2share

Young XXX Tube Videos 3540

Small girls and boys porn 3525 ryushare uploaded keep2share

Small girls and boys porn 3525

Brazzers Video Xxx Hd Hq Com 226480 ryushare uploaded keep2share

Brazzers Video Xxx Hd Hq Com 226480

hd hq xxx porn videos dawonlod 226399 ryushare uploaded keep2share

hd hq xxx porn videos dawonlod 226399

Fresh Teen Videos 224890 ryushare uploaded keep2share

Fresh Teen Videos 224890

Defloration.com Erika Kleptovich – Losing of Virginity ryushare uploaded keep2share

Defloration.com Erika Kleptovich – Losing of Virginity

Hot Teen Sex 224463 ryushare uploaded keep2share

Hot Teen Sex 224463

hd vergin porn star image 226196 ryushare uploaded keep2share

hd vergin porn star image 226196

Young Sex Movies 5160 ryushare uploaded keep2share

Young Sex Movies 5160

Teen porn movies 1779 ryushare uploaded keep2share

Teen porn movies 1779

Girls do porn downloads 3844 ryushare uploaded keep2share

Girls do porn downloads 3844

Hot Teen Sex HD videos 225047 ryushare uploaded keep2share

Hot Teen Sex HD videos 225047

Free Teen Porn Videos at Teen Sex Tube XXX 1416 ryushare uploaded keep2share

Free Teen Porn Videos at Teen Sex Tube XXX 1416

Alice March – Smooth as Silk ryushare uploaded keep2share

Alice March – Smooth as Silk

// hq720p porn com 226758 ryushare uploaded keep2share

// hq720p porn com 226758

xxx com full pc Hd video 720p ryushare uploaded keep2share

xxx com full pc Hd video 720p

pron xxx hq 1280p 226224 ryushare uploaded keep2share

pron xxx hq 1280p 226224

Teen porn movies 224211 ryushare uploaded keep2share

Teen porn movies 224211

www xvedeo comhd ryushare uploaded keep2share

www xvedeo comhd

I Like Old Dick In My Teeny Ass – Ivana Sugar ryushare uploaded keep2share

I Like Old Dick In My Teeny Ass – Ivana Sugar

Movies Young legal porn 224470 ryushare uploaded keep2share

Movies Young legal porn 224470

Report broken links / Post a comment

You must be logged in to post a comment.



General
Complete name : D:Welcome_To_The_Wild_HD.mp4
Format : MPEG-4
Format profile : Base Media
Codec ID : isom
File size : 652 MiB
Duration : 20mn 40s
Overall bit rate mode : Variable
Overall bit rate : 4 407 Kbps
Writing application : Lavf52.64.2

Video
ID : 1
Format : AVC
Format/Info : Advanced Video Codec
Format profile : High@L3.1
Format settings, CABAC : Yes
Format settings, ReFrames : 2 frames
Codec ID : avc1
Codec ID/Info : Advanced Video Coding
Duration : 20mn 40s
Bit rate : 4 310 Kbps
Width : 1 280 pixels
Height : 720 pixels
Display aspect ratio : 16:9
Frame rate mode : Constant
Frame rate : 29.970 fps
Color space : YUV
Chroma subsampling : 4:2:0
Bit depth : 8 bits
Scan type : Progressive
Bits/(Pixel*Frame) : 0.156
Stream size : 638 MiB (98%)
Writing library : x264 core 102 r1666 d058f37
Encoding settings : cabac=1 / ref=2 / deblock=1:0:0 / analyse=0x3:0x113 / me=hex / subme=6 / psy=1 / psy_rd=1.00:0.00 / mixed_ref=0 / me_range=16 / chroma_me=1 / trellis=0 / 8x8dct=1 / cqm=0 / deadzone=21,11 / fast_pskip=1 / chroma_qp_offset=-2 / threads=24 / sliced_threads=0 / nr=0 / decimate=1 / interlaced=0 / constrained_intra=0 / bframes=3 / b_pyramid=0 / b_adapt=1 / b_bias=0 / direct=3 / weightb=1 / open_gop=0 / weightp=2 / keyint=250 / keyint_min=25 / scenecut=40 / intra_refresh=0 / rc_lookahead=40 / rc=crf / mbtree=1 / crf=20.0 / qcomp=0.60 / qpmin=10 / qpmax=51 / qpstep=4 / ip_ratio=1.41 / aq=1:1.00

Audio
ID : 2
Format : AAC
Format/Info : Advanced Audio Codec
Format profile : LC
Codec ID : 40
Duration : 20mn 40s
Bit rate mode : Variable
Bit rate : 90.1 Kbps
Channel(s) : 2 channels
Channel positions : Front: L R
Sampling rate : 44.1 KHz
Compression mode : Lossy
Stream size : 13.3 MiB (2%)