WowGirls Beata And Klara Satisfy Me

18OnlyGirls - Natasha - 25 Clips Video PackTiffany Fox, Alina Li - Sleepover Aftermath

Posted in HD Porn, Lesbian, Pornstar, Sex Movies, Teen | 21854 Views |


Rate this girl !!!




WowGirls.13.07.19.Beata.And.Klara.Satisfy.Me.1080p\r\n\r\nWowGirls Beata And Klara Satisfy Me\r\n\r\nWowGirls Beata And Klara Satisfy Me\r\n\r\nWowGirls Beata And Klara Satisfy Me\r\n\r\nWowGirls Beata And Klara Satisfy Me\r\n\r\nWowGirls Beata And Klara Satisfy Me\r\n\r\nWowGirls Beata And Klara Satisfy Me\r\n\r\n\r\n\r\nFile: H:\WowGirls.13.07.19.Beata.And.Klara.Satisfy.Me.1080p.mp4\r\nSize: 1275101266 bytes (1.19 GiB), duration: 00:19:41, avg.bitrate: 8637 kb/s\r\nAudio: aac, 44100 Hz, 2 channels, s16, 151 kb/s (und)\r\nVideo: h264, yuv420p, 1920×1080, 8477 kb/s, 29.97 fps(r) (und)\r\n\r\n\r\n\r\n\r\n\r\n\r\n\r\n\r\n\r\n



DOWNLOAD

Keep2share.cc - Uploaded.net - Openload.co - Rapidu.net


http://ryushare.com/256156eba4ae/W0wG1rls.B34t4.And.Kl4r4.part1.rar
http://ryushare.com/264a2b90a176/W0wG1rls.B34t4.And.Kl4r4.part2.rar
http://keep2share.cc/file/5273fc00156b1
http://keep2share.cc/file/5273fbe73ac6d
http://ul.to/5cg0pqjl
http://ul.to/tpd79563


Premium here:
uploaded.net
keep2share.cc
rapidu.net.cc

Teens related to WowGirls Beata And Klara Satisfy Me


Girls do porn in HD 5406 ryushare uploaded keep2share

Girls do porn in HD 5406

yang garl sex movi 226280 ryushare uploaded keep2share

yang garl sex movi 226280

www full hd porn downlod 226719 ryushare uploaded keep2share

www full hd porn downlod 226719

very hot pron 226721 ryushare uploaded keep2share

very hot pron 226721

[PublicAgent.com] Cindy Loarn – Bubble Butt Babe Fucked in a Car ryushare uploaded keep2share

[PublicAgent.com] Cindy Loarn – Bubble Butt Babe Fucked in a Car

teensex mp4 hd download 226542 ryushare uploaded keep2share

teensex mp4 hd download 226542

Teen porn movies 3184 ryushare uploaded keep2share

Teen porn movies 3184

Nubiles-Porn.com Olivia Devine, Loving Touch ryushare uploaded keep2share

Nubiles-Porn.com Olivia Devine, Loving Touch

Young Virgin Pussy Teen Fuck Tube 4223 ryushare uploaded keep2share

Young Virgin Pussy Teen Fuck Tube 4223

HD Teen Sex Tube 224636 ryushare uploaded keep2share

HD Teen Sex Tube 224636

Tube Young Sex 224260 ryushare uploaded keep2share

Tube Young Sex 224260

Watch Teen Sex Videos HD 225525 ryushare uploaded keep2share

Watch Teen Sex Videos HD 225525

HD Porn Teen Sex Videos 4268 ryushare uploaded keep2share

HD Porn Teen Sex Videos 4268

porn sex full hd high quality free downloding 226345 ryushare uploaded keep2share

porn sex full hd high quality free downloding 226345

College Teen Sex 5458 ryushare uploaded keep2share

College Teen Sex 5458

www hd sex vediocom ryushare uploaded keep2share

www hd sex vediocom

Teen Sex Videos Tube Movies 224998 ryushare uploaded keep2share

Teen Sex Videos Tube Movies 224998

Free Teen Porn Videos at Teen Sex Tube XXX 3477 ryushare uploaded keep2share

Free Teen Porn Videos at Teen Sex Tube XXX 3477

Teen Sex Movies 2122 ryushare uploaded keep2share

Teen Sex Movies 2122

wwwten sex hd com 226451 ryushare uploaded keep2share

wwwten sex hd com 226451

Sara Luvv – Dorm Room Invitation ryushare uploaded keep2share

Sara Luvv – Dorm Room Invitation

www18sexivideo com ryushare uploaded keep2share

www18sexivideo com

hdsex movea com 226516 ryushare uploaded keep2share

hdsex movea com 226516

Teen Porn XXX Tube 2208 ryushare uploaded keep2share

Teen Porn XXX Tube 2208

Wow porn tube movies 225566 ryushare uploaded keep2share

Wow porn tube movies 225566

HD Porn Teen Sex Videos 1122 ryushare uploaded keep2share

HD Porn Teen Sex Videos 1122

Monroe – Sweet And Tender ryushare uploaded keep2share

Monroe – Sweet And Tender

21Naturals.com Ashley ryushare uploaded keep2share

21Naturals.com Ashley

Free Young Porn Videos XXX Teen Porn 223975 ryushare uploaded keep2share

Free Young Porn Videos XXX Teen Porn 223975

TrickyMasseur.com Isabeli ryushare uploaded keep2share

TrickyMasseur.com Isabeli

EuroSexParties Tiana And Beata Undine Time For Playing ryushare uploaded keep2share

EuroSexParties Tiana And Beata Undine Time For Playing

XXX young porn sex 3489 ryushare uploaded keep2share

XXX young porn sex 3489

Good Teen Tube Sexy Young Naked Girls Movies 225497 ryushare uploaded keep2share

Good Teen Tube Sexy Young Naked Girls Movies 225497

yess xxx mkv 226512 ryushare uploaded keep2share

yess xxx mkv 226512

bf 1080p xxxx sex xxx hd bf 226698 ryushare uploaded keep2share

bf 1080p xxxx sex xxx hd bf 226698

Report broken links / Post a comment

You must be logged in to post a comment.



General\r\nComplete name : H:HD TEENS PORNDOWNLOADRYUSHAREUPLOADEDKEEP2SHAREWowGirls.13.07.19.Beata.And.Klara.Satisfy.Me.1080p.mp4\r\nFormat : MPEG-4\r\nFormat profile : Base Media\r\nCodec ID : isom\r\nFile size : 1.19 GiB\r\nDuration : 19mn 41s\r\nOverall bit rate : 8 637 Kbps\r\nMovie name : Download from HDteenmania.com\r\nWriting application : Lavf55.12.102\r\nComment : Download from HDteenmania.com\r\n\r\nVideo\r\nID : 1\r\nFormat : AVC\r\nFormat/Info : Advanced Video Codec\r\nFormat profile : High@L4.0\r\nFormat settings, CABAC : Yes\r\nFormat settings, ReFrames : 2 frames\r\nCodec ID : avc1\r\nCodec ID/Info : Advanced Video Coding\r\nDuration : 19mn 41s\r\nBit rate : 8 478 Kbps\r\nWidth : 1 920 pixels\r\nHeight : 1 080 pixels\r\nDisplay aspect ratio : 16:9\r\nFrame rate mode : Constant\r\nFrame rate : 29.970 fps\r\nColor space : YUV\r\nChroma subsampling : 4:2:0\r\nBit depth : 8 bits\r\nScan type : Progressive\r\nBits/(Pixel*Frame) : 0.136\r\nStream size : 1.17 GiB (98%)\r\nWriting library : x264 core 107\r\nEncoding settings : cabac=1 / ref=2 / deblock=1:0:0 / analyse=0x3:0x113 / me=hex / subme=6 / psy=1 / psy_rd=1.00:0.00 / mixed_ref=0 / me_range=16 / chroma_me=1 / trellis=0 / 8x8dct=1 / cqm=0 / deadzone=21,11 / fast_pskip=1 / chroma_qp_offset=-2 / threads=24 / sliced_threads=0 / nr=0 / decimate=1 / interlaced=0 / constrained_intra=0 / bframes=3 / b_pyramid=0 / b_adapt=1 / b_bias=0 / direct=3 / weightb=1 / open_gop=0 / weightp=2 / keyint=250 / keyint_min=25 / scenecut=40 / intra_refresh=0 / rc_lookahead=40 / rc=crf / mbtree=1 / crf=20.0 / qcomp=0.60 / qpmin=10 / qpmax=51 / qpstep=4 / ip_ratio=1.41 / aq=1:1.00\r\n\r\nAudio\r\nID : 2\r\nFormat : AAC\r\nFormat/Info : Advanced Audio Codec\r\nFormat profile : LC\r\nCodec ID : 40\r\nDuration : 19mn 41s\r\nBit rate mode : Constant\r\nBit rate : 151 Kbps\r\nChannel(s) : 2 channels\r\nChannel positions : Front: L R\r\nSampling rate : 44.1 KHz\r\nCompression mode : Lossy\r\nDelay relative to video : 33ms\r\nStream size : 21.3 MiB (2%)