WowGirls Livia Grace C Getting Off Without A Cock

Nomi - Bikini LandGrace and Kimmie - Friend of a Friend

Posted in HD Porn, Lesbian, Sex Movies, Teen | 14015 Views |


Rate this girl !!!




Livia Grace C Getting Off Without A Cock HD1080p\r\n\r\nWowGirls Livia Grace C Getting Off Without A Cock\r\n\r\nWowGirls Livia Grace C Getting Off Without A Cock\r\n\r\nWowGirls Livia Grace C Getting Off Without A Cock\r\n\r\nWowGirls Livia Grace C Getting Off Without A Cock\r\n\r\nWowGirls Livia Grace C Getting Off Without A Cock\r\n\r\n\r\nFile: Livia_Grace_C_Getting_Off_Without_A_Cock_HD1080.mp4\r\nSize: 877939654 bytes (837.27 MiB), duration: 00:15:42, avg.bitrate: 7456 kb/s\r\nAudio: aac, 44100 Hz, 2 channels, s16, 151 kb/s (und)\r\nVideo: h264, yuv420p, 1920×1080, 7291 kb/s, 29.97 fps(r) (und)\r\n\r\n\r\n\r\n



DOWNLOAD

Keep2share.cc - Uploaded.net - Openload.co - Rapidu.net


http://keep2share.cc/file/5274461fc3318
http://ul.to/ri4hmzxg
http://ryushare.com/3b354665d2c4/Gr4c3.W1th0.4.C0ck.1080.rar


Premium here:
uploaded.net
keep2share.cc
rapidu.net.cc

Teens related to WowGirls Livia Grace C Getting Off Without A Cock


First time Sexual Films 18 sex xxx 225849 ryushare uploaded keep2share

First time Sexual Films 18 sex xxx 225849

8 Teen XXX – Teen Sex 225082 ryushare uploaded keep2share

8 Teen XXX – Teen Sex 225082

Angel-Desert – Publics Pizzeria – Il Gusto ryushare uploaded keep2share

Angel-Desert – Publics Pizzeria – Il Gusto

Hot Teen Sex HD videos 1371 ryushare uploaded keep2share

Hot Teen Sex HD videos 1371

Franziska Facella – Sparkle For Me ryushare uploaded keep2share

Franziska Facella – Sparkle For Me

download movies sexx hd ryushare uploaded keep2share

download movies sexx hd

Teen Sex Videos Tube Movies 225805 ryushare uploaded keep2share

Teen Sex Videos Tube Movies 225805

Teen Sex Movies 224577 ryushare uploaded keep2share

Teen Sex Movies 224577

Free High Quality Sex Movies 225182 ryushare uploaded keep2share

Free High Quality Sex Movies 225182

A lot of cocks for a teen ryushare uploaded keep2share

A lot of cocks for a teen

www Short hd sexvideos Com ryushare uploaded keep2share

www Short hd sexvideos Com

download hot pussy xxx HD video ryushare uploaded keep2share

download hot pussy xxx HD video

HD teen sex tube 4210 ryushare uploaded keep2share

HD teen sex tube 4210

Hot Teen Sex 1726 ryushare uploaded keep2share

Hot Teen Sex 1726

hd sex videos 1080p download for pc ryushare uploaded keep2share

hd sex videos 1080p download for pc

Connie Stay by my Woman – YoungLegalPorn ryushare uploaded keep2share

Connie Stay by my Woman – YoungLegalPorn

Teen porn movies 1195 ryushare uploaded keep2share

Teen porn movies 1195

Vera – Fuck Me, My Love! ryushare uploaded keep2share

Vera – Fuck Me, My Love!

Katarinka – Russian Teen – Pack 45 clips ryushare uploaded keep2share

Katarinka – Russian Teen – Pack 45 clips

Porno movies young teens lesbian 223864 ryushare uploaded keep2share

Porno movies young teens lesbian 223864

First time Sexual Films 18 sex xxx 225471 ryushare uploaded keep2share

First time Sexual Films 18 sex xxx 225471

australia teen porn xxx ryushare uploaded keep2share

australia teen porn xxx

HQ Sex Movies Download 225044 ryushare uploaded keep2share

HQ Sex Movies Download 225044

HQ Sex Movies Download 5339 ryushare uploaded keep2share

HQ Sex Movies Download 5339

Welcome To The Wild / Beata ryushare uploaded keep2share

Welcome To The Wild / Beata

world sex pink com 226496 ryushare uploaded keep2share

world sex pink com 226496

Download young porn sex 224632 ryushare uploaded keep2share

Download young porn sex 224632

High Definition Movies on HD 224690 ryushare uploaded keep2share

High Definition Movies on HD 224690

VIOLA BAILEY’S and BEATA UNDINE – HARD – BED + 1 ryushare uploaded keep2share

VIOLA BAILEY’S and BEATA UNDINE – HARD – BED + 1

Alice March – Smooth as Silk ryushare uploaded keep2share

Alice March – Smooth as Silk

Teen Porn XXX Tube 4159 ryushare uploaded keep2share

Teen Porn XXX Tube 4159

Hd quality – Teen sex video 1560 ryushare uploaded keep2share

Hd quality – Teen sex video 1560

Girls sex art hd teens videos 225284 ryushare uploaded keep2share

Girls sex art hd teens videos 225284

Wow girls porn teens 2761 ryushare uploaded keep2share

Wow girls porn teens 2761

HD Teen Sex Tube 2148 ryushare uploaded keep2share

HD Teen Sex Tube 2148

Report broken links / Post a comment

You must be logged in to post a comment.



General\r\nComplete name : C:HD TEENS PORNDOWNLOADRYUSHAREUPLOADEDKEEP2SHARELivia_Grace_C_Getting_Off_Without_A_Cock_HD1080.mp4\r\nFormat : MPEG-4\r\nFormat profile : Base Media\r\nCodec ID : isom\r\nFile size : 837 MiB\r\nDuration : 15mn 42s\r\nOverall bit rate mode : Variable\r\nOverall bit rate : 7 449 Kbps\r\nWriting application : Lavf52.64.2\r\n\r\nVideo\r\nID : 1\r\nFormat : AVC\r\nFormat/Info : Advanced Video Codec\r\nFormat profile : High@L4.0\r\nFormat settings, CABAC : Yes\r\nFormat settings, ReFrames : 2 frames\r\nCodec ID : avc1\r\nCodec ID/Info : Advanced Video Coding\r\nDuration : 15mn 42s\r\nBit rate : 7 291 Kbps\r\nWidth : 1 920 pixels\r\nHeight : 1 080 pixels\r\nDisplay aspect ratio : 16:9\r\nFrame rate mode : Constant\r\nFrame rate : 29.970 fps\r\nColor space : YUV\r\nChroma subsampling : 4:2:0\r\nBit depth : 8 bits\r\nScan type : Progressive\r\nBits/(Pixel*Frame) : 0.117\r\nStream size : 820 MiB (98%)\r\nWriting library : x264 core 107\r\nEncoding settings : cabac=1 / ref=2 / deblock=1:0:0 / analyse=0x3:0x113 / me=hex / subme=6 / psy=1 / psy_rd=1.00:0.00 / mixed_ref=0 / me_range=16 / chroma_me=1 / trellis=0 / 8x8dct=1 / cqm=0 / deadzone=21,11 / fast_pskip=1 / chroma_qp_offset=-2 / threads=24 / sliced_threads=0 / nr=0 / decimate=1 / interlaced=0 / constrained_intra=0 / bframes=3 / b_pyramid=0 / b_adapt=1 / b_bias=0 / direct=3 / weightb=1 / open_gop=0 / weightp=2 / keyint=250 / keyint_min=25 / scenecut=40 / intra_refresh=0 / rc_lookahead=40 / rc=crf / mbtree=1 / crf=20.0 / qcomp=0.60 / qpmin=10 / qpmax=51 / qpstep=4 / ip_ratio=1.41 / aq=1:1.00\r\n\r\nAudio\r\nID : 2\r\nFormat : AAC\r\nFormat/Info : Advanced Audio Codec\r\nFormat profile : LC\r\nCodec ID : 40\r\nDuration : 15mn 42s\r\nBit rate mode : Variable\r\nBit rate : 152 Kbps\r\nChannel(s) : 2 channels\r\nChannel positions : Front: L R\r\nSampling rate : 44.1 KHz\r\nCompression mode : Lossy\r\nDelay relative to video : 33ms\r\nStream size : 17.1 MiB (2%)