Young 720p hd porn 3634

Young Sex Movies 3635HD Teen Sex Tube 3628

Posted in HD Porn, Pornstar, Sex Movies, Teen | 9105 Views |


Rate this girl !!!




\r\n\r\n\r\n\r\n



DOWNLOAD

Keep2share.cc - Uploaded.net - Openload.co - Rapidu.net


http://fileom.com/gcxqn8gurrs8/XRTJMSDNtn.mp4.html
http://ul.to/17ysnebd/XRTJMSDNtn.mp4
http://k2s.cc/file/d18c4fc600806/XRTJMSDNtn.mp4
http://ryushare.com/zfiq5g4heia1/XRTJMSDNtn.mp4


Premium here:
uploaded.net
keep2share.cc
rapidu.net.cc


Teens related to Young 720p hd porn 3634


Model porno sex 2514 ryushare uploaded keep2share

Model porno sex 2514

Linda S – YES Girl ryushare uploaded keep2share

Linda S – YES Girl

Teen Sex Movies 223765 ryushare uploaded keep2share

Teen Sex Movies 223765

www ART xvldeocom ryushare uploaded keep2share

www ART xvldeocom

HD Porn Teen Sex Videos 1479 ryushare uploaded keep2share

HD Porn Teen Sex Videos 1479

HD sex movies downloads 2841 ryushare uploaded keep2share

HD sex movies downloads 2841

Free High Quality Sex Movies 1175 ryushare uploaded keep2share

Free High Quality Sex Movies 1175

Teen porn movies 225435 ryushare uploaded keep2share

Teen porn movies 225435

zazzers com Full HD ryushare uploaded keep2share

zazzers com Full HD

[JulesJordan.com] Adriana Chechik, Vicki Chase (Adriana Chechik and Vicki Chase Are A Lady And The Tramp Before A Big Cock Makes Them Anal Savages / 21.11.16.) [2016 г., Gonzo, Threesome, Anal, 1080p] ryushare uploaded keep2share

[JulesJordan.com] Adriana Chechik, Vicki Chase (Adriana Chechik and Vicki Chase Are A Lady And The Tramp Before A Big Cock Makes Them Anal Savages / 21.11.16.) [2016 г., Gonzo, Threesome, Anal, 1080p]

antartika poeno sex 226048 ryushare uploaded keep2share

antartika poeno sex 226048

[Manyvids.com] Codi Vore (Sucking My First Cock! POV BJ and Facial) Codi Vore – Sucking My First Cock! POV BJ and Facial [2016 г., Webcam,Blondes,Big natural tits,Boobs,POV,Blowjob,Cum shots,Facial,Tit fuck,. 1080p] ryushare uploaded keep2share

[Manyvids.com] Codi Vore (Sucking My First Cock! POV BJ and Facial) Codi Vore – Sucking My First Cock! POV BJ and Facial [2016 г., Webcam,Blondes,Big natural tits,Boobs,POV,Blowjob,Cum shots,Facial,Tit fuck,. 1080p]

8 Teen XXX – Teen Sex 224806 ryushare uploaded keep2share

8 Teen XXX – Teen Sex 224806

pron pictures fucked 226288 ryushare uploaded keep2share

pron pictures fucked 226288

www wowgirl com sex 226357 ryushare uploaded keep2share

www wowgirl com sex 226357

HD Teen Sex Tube 224831 ryushare uploaded keep2share

HD Teen Sex Tube 224831

Watch Teen Sex Videos HD 1246 ryushare uploaded keep2share

Watch Teen Sex Videos HD 1246

Wow girls porn teens 4595 ryushare uploaded keep2share

Wow girls porn teens 4595

16 xxx ryushare uploaded keep2share

16 xxx

video porn massage porn ryushare uploaded keep2share

video porn massage porn

Girls sex art hd teens videos 225859 ryushare uploaded keep2share

Girls sex art hd teens videos 225859

89 xxx he video in 226441 ryushare uploaded keep2share

89 xxx he video in 226441

Free Young Porn Videos XXX Teen Porn 5149 ryushare uploaded keep2share

Free Young Porn Videos XXX Teen Porn 5149

XXX/H/XX/ ryushare uploaded keep2share

XXX/H/XX/

www 8-8teen com 225994 ryushare uploaded keep2share

www 8-8teen com 225994

First time Sexual Films 18 sex xxx 225013 ryushare uploaded keep2share

First time Sexual Films 18 sex xxx 225013

English hot giral sex 226062 ryushare uploaded keep2share

English hot giral sex 226062

Hd quality – Teen sex video 224703 ryushare uploaded keep2share

Hd quality – Teen sex video 224703

Veronica Radke Tube Young Sex 3483 ryushare uploaded keep2share

Veronica Radke Tube Young Sex 3483

Hd quality – Teen sex video 3683 ryushare uploaded keep2share

Hd quality – Teen sex video 3683

Hardcore Sex Hub 4176 ryushare uploaded keep2share

Hardcore Sex Hub 4176

HD Porn Videos 225579 ryushare uploaded keep2share

HD Porn Videos 225579

Hot Teen Sex 4324 ryushare uploaded keep2share

Hot Teen Sex 4324

Teen Sex Videos Tube Movies 1396 ryushare uploaded keep2share

Teen Sex Videos Tube Movies 1396

Wow Porn Movies download) 224242 ryushare uploaded keep2share

Wow Porn Movies download) 224242

Report broken links / Post a comment

You must be logged in to post a comment.



General\r\nComplete name : D:hd pornstars teens ryushare.com uploaded.net keep2share.cc fileom.com download porn movies clips XRTJMSDNtn.mp4\r\nFormat : MPEG-4\r\nFormat profile : Base Media\r\nCodec ID : isom\r\nFile size : 962 MiB\r\nDuration : 22mn 39s\r\nOverall bit rate mode : Constant\r\nOverall bit rate : 5 939 Kbps\r\nMovie name : Downloaded from RARBG.COM\r\nWriting application : Lavf55.12.102\r\nComment : Downloaded from RARBG.COM\r\n\r\nVideo\r\nID : 1\r\nFormat : MPEG-4 Visual\r\nFormat profile : Simple@L1\r\nFormat settings, BVOP : No\r\nFormat settings, QPel : No\r\nFormat settings, GMC : No warppoints\r\nFormat settings, Matrix : Default (H.263)\r\nCodec ID : 20\r\nDuration : 22mn 39s\r\nBit rate mode : Constant\r\nBit rate : 5 832 Kbps\r\nWidth : 1 920 pixels\r\nHeight : 1 080 pixels\r\nDisplay aspect ratio : 16:9\r\nFrame rate mode : Constant\r\nFrame rate : 23.976 fps\r\nColor space : YUV\r\nChroma subsampling : 4:2:0\r\nBit depth : 8 bits\r\nScan type : Progressive\r\nCompression mode : Lossy\r\nBits/(Pixel*Frame) : 0.117\r\nStream size : 945 MiB (98%)\r\nWriting library : Lavc54.46.100\r\nLanguage : English\r\n\r\nAudio\r\nID : 2\r\nFormat : AAC\r\nFormat/Info : Advanced Audio Codec\r\nFormat profile : LC\r\nCodec ID : 40\r\nDuration : 22mn 39s\r\nDuration_LastFrame : -23ms\r\nBit rate mode : Constant\r\nBit rate : 103 Kbps\r\nChannel(s) : 2 channels\r\nChannel positions : Front: L R\r\nSampling rate : 48.0 KHz\r\nCompression mode : Lossy\r\nStream size : 16.7 MiB (2%)\r\nLanguage : English\r\nhd pornstars teens ryushare.com uploaded.net keep2share.cc fileom.com download porn movies clips \r\n