Young legal porn clips 3020

Young legal porn clips 3026Sex Teens porn movies 3015

Posted in HD Porn, Pornstar, Sex Movies, Teen | 9939 Views |


Rate this girl !!!


(24 raters, 72 scores, average: 3.00 out of 5, 60%)



8.jpeg

Link(806 Mb||27:18||1920*1080||MP4)



DOWNLOAD

Keep2share.cc - Uploaded.net - Openload.co - Rapidu.net



Premium here:
uploaded.net
keep2share.cc
rapidu.net.cc

Incoming search terms:

  • xxxvidomobes
  • porn 3020
  • xxxvidomove
  • xxxvidomovis
  • xxxvidomovy
  • 780 kbs mp4 hd xxx sex videos full version
  • Www xxxvidomove com
  • xxxvidomoves
  • xxxvidomoving downlod


Teens related to Young legal porn clips 3020


image sexxxx porn 226599 ryushare uploaded keep2share

image sexxxx porn 226599

hd 720p porn vdo download ryushare uploaded keep2share

hd 720p porn vdo download

fuck from behind 226023 ryushare uploaded keep2share

fuck from behind 226023

Tanned teen in pink sofa ryushare uploaded keep2share

Tanned teen in pink sofa

Teen Sex Movies 224779 ryushare uploaded keep2share

Teen Sex Movies 224779

hd hq xxx porn videos dawonlod 226399 ryushare uploaded keep2share

hd hq xxx porn videos dawonlod 226399

pornosexxx hd 226414 ryushare uploaded keep2share

pornosexxx hd 226414

Teen porn movies 2556 ryushare uploaded keep2share

Teen porn movies 2556

K Two Teasing Tongues 8 A ryushare uploaded keep2share

K Two Teasing Tongues 8 A

Porn teen hd downloads 224873 ryushare uploaded keep2share

Porn teen hd downloads 224873

Daria – Clinic Sex ryushare uploaded keep2share

Daria – Clinic Sex

Teen Sex Videos Tube Movies 3941 ryushare uploaded keep2share

Teen Sex Videos Tube Movies 3941

Nude Teens fucking hard 225375 ryushare uploaded keep2share

Nude Teens fucking hard 225375

Fresh Teen Videos 4156 ryushare uploaded keep2share

Fresh Teen Videos 4156

www full hd xxx sexy movie 226625 ryushare uploaded keep2share

www full hd xxx sexy movie 226625

Tube Young Sex 1406 ryushare uploaded keep2share

Tube Young Sex 1406

xxx purn HD dawnlod ryushare uploaded keep2share

xxx purn HD dawnlod

Wow girls downloads hd 224848 ryushare uploaded keep2share

Wow girls downloads hd 224848

Teen Sex Videos Tube Movies 224992 ryushare uploaded keep2share

Teen Sex Videos Tube Movies 224992

Young 720p hd porn 4567 ryushare uploaded keep2share

Young 720p hd porn 4567

HQ Sex Movies Download 224208 ryushare uploaded keep2share

HQ Sex Movies Download 224208

Hardcore Sex Hub 224158 ryushare uploaded keep2share

Hardcore Sex Hub 224158

very low size hd porn videos ryushare uploaded keep2share

very low size hd porn videos

Free Teen Porn Videos at Teen Sex Tube XXX 5283 ryushare uploaded keep2share

Free Teen Porn Videos at Teen Sex Tube XXX 5283

Hardcore Sex Hub 225234 ryushare uploaded keep2share

Hardcore Sex Hub 225234

xxx18 yes 226216 ryushare uploaded keep2share

xxx18 yes 226216

HD Teen Sex Tube 225487 ryushare uploaded keep2share

HD Teen Sex Tube 225487

HD Porn Video 225189 ryushare uploaded keep2share

HD Porn Video 225189

xxxnx videos hd 18 con 226659 ryushare uploaded keep2share

xxxnx videos hd 18 con 226659

Teen Sex Porn Videos Free Nude Teens 3806 ryushare uploaded keep2share

Teen Sex Porn Videos Free Nude Teens 3806

Teenage Fuck Clips 225863 ryushare uploaded keep2share

Teenage Fuck Clips 225863

Double Tease – All Sex ryushare uploaded keep2share

Double Tease – All Sex

Hardcore sex videos in the high definition quality 224111 ryushare uploaded keep2share

Hardcore sex videos in the high definition quality 224111

Young Virgin Pussy Teen Fuck Tube 3398 ryushare uploaded keep2share

Young Virgin Pussy Teen Fuck Tube 3398

High Definition Movies on HD 5364 ryushare uploaded keep2share

High Definition Movies on HD 5364

Report broken links / Post a comment

You must be logged in to post a comment.



General
Complete name : D:HD Porn Teens Sex download movies tube online tubeDRGRNmr-whe.mp4
Format : MPEG-4
Format profile : Base Media
Codec ID : isom
File size : 806 MiB
Duration : 27mn 18s
Overall bit rate : 4 127 Kbps
Writing application : Lavf55.12.100

Video
ID : 1
Format : AVC
Format/Info : Advanced Video Codec
Format profile : High@L4.0
Format settings, CABAC : Yes
Format settings, ReFrames : 4 frames
Codec ID : avc1
Codec ID/Info : Advanced Video Coding
Duration : 27mn 18s
Bit rate : 4 000 Kbps
Width : 1 920 pixels
Height : 1 080 pixels
Display aspect ratio : 16:9
Frame rate mode : Constant
Frame rate : 29.000 fps
Color space : YUV
Chroma subsampling : 4:2:0
Bit depth : 8 bits
Scan type : Progressive
Bits/(Pixel*Frame) : 0.067
Stream size : 780 MiB (97%)
Writing library : x264 core 130 r2274 c832fe9
Encoding settings : cabac=1 / ref=3 / deblock=1:0:0 / analyse=0x3:0x113 / me=hex / subme=7 / psy=1 / psy_rd=1.00:0.00 / mixed_ref=1 / me_range=16 / chroma_me=1 / trellis=1 / 8x8dct=1 / cqm=0 / deadzone=21,11 / fast_pskip=1 / chroma_qp_offset=-2 / threads=24 / lookahead_threads=4 / sliced_threads=0 / nr=0 / decimate=1 / interlaced=0 / bluray_compat=0 / constrained_intra=0 / bframes=3 / b_pyramid=2 / b_adapt=1 / b_bias=0 / direct=1 / weightb=1 / open_gop=0 / weightp=2 / keyint=250 / keyint_min=25 / scenecut=40 / intra_refresh=0 / rc_lookahead=40 / rc=abr / mbtree=1 / bitrate=4000 / ratetol=1.0 / qcomp=0.60 / qpmin=0 / qpmax=69 / qpstep=4 / ip_ratio=1.40 / aq=1:1.00
Language : English

Audio
ID : 2
Format : AAC
Format/Info : Advanced Audio Codec
Format profile : LC
Codec ID : 40
Duration : 27mn 18s
Bit rate mode : Constant
Bit rate : 128 Kbps
Channel(s) : 2 channels
Channel positions : Front: L R
Sampling rate : 48.0 KHz
Compression mode : Lossy
Stream size : 25.0 MiB (3%)
Language : English