Young Sex Movies 1335

Adult Hardcore XXX Sex Videos 1343HD Teen Sex Tube 1330

Posted in Amateur, HD Porn, Sex Movies, Teen | 10729 Views |


Rate this girl !!!




\r\n\r\n\r\n\r\n\r\nhttp://img101.imagetwist.com/i/05193/5v9qqbp128ha.jpeg\r\n\r\n Link(923 Mb||24:50||1280*720||WMV)



DOWNLOAD

Keep2share.cc - Uploaded.net - Openload.co - Rapidu.net


http://ul.to/mkleq5so
http://ryushare.com/bswe6rkxmat0/CBSCTNdy.rar
http://keep2share.cc/file/bb20c28d8994d


Premium here:
uploaded.net
keep2share.cc
rapidu.net.cc


Teens related to Young Sex Movies 1335


xxx photos HD MP4/ ryushare uploaded keep2share

xxx photos HD MP4/

Orgy with pornstar young blonde teen ryushare uploaded keep2share

Orgy with pornstar young blonde teen

porn movie hd romantic download 226228 ryushare uploaded keep2share

porn movie hd romantic download 226228

breezer hd porn video 226339 ryushare uploaded keep2share

breezer hd porn video 226339

The best Teen sex 225855 ryushare uploaded keep2share

The best Teen sex 225855

High Definition Movies on HD 1766 ryushare uploaded keep2share

High Definition Movies on HD 1766

xxx com full pc Hd video 720p ryushare uploaded keep2share

xxx com full pc Hd video 720p

Porn party teen girls 224803 ryushare uploaded keep2share

Porn party teen girls 224803

ww hot sex hdvideo download com ryushare uploaded keep2share

ww hot sex hdvideo download com

www fist tam gralla xxx video com ryushare uploaded keep2share

www fist tam gralla xxx video com

Small girl having hot group sex ryushare uploaded keep2share

Small girl having hot group sex

Hot Teen Sex 3611 ryushare uploaded keep2share

Hot Teen Sex 3611

The best Teen sex 4297 ryushare uploaded keep2share

The best Teen sex 4297

Anal Awakening ryushare uploaded keep2share

Anal Awakening

Teen porn xxx 224082 ryushare uploaded keep2share

Teen porn xxx 224082

Dakota James & Hannah Hartman – Blindfold My Baby ryushare uploaded keep2share

Dakota James & Hannah Hartman – Blindfold My Baby

Teen sex xxx hd 2606 ryushare uploaded keep2share

Teen sex xxx hd 2606

teenssexdownloa 226445 ryushare uploaded keep2share

teenssexdownloa 226445

Nubiles.net Olivia Devine – Outdoor Orgasm ryushare uploaded keep2share

Nubiles.net Olivia Devine – Outdoor Orgasm

Hot hd teen sex videos 4713 ryushare uploaded keep2share

Hot hd teen sex videos 4713

Teens 1080p hd porn 3561 ryushare uploaded keep2share

Teens 1080p hd porn 3561

21Naturals.com Ashley ryushare uploaded keep2share

21Naturals.com Ashley

hd china teen sex video download ryushare uploaded keep2share

hd china teen sex video download

College Teen Sex 1921 ryushare uploaded keep2share

College Teen Sex 1921

8 Teen XXX – Teen Sex 4481 ryushare uploaded keep2share

8 Teen XXX – Teen Sex 4481

Porn teen hd downloads 224721 ryushare uploaded keep2share

Porn teen hd downloads 224721

Wow porn hd downloads 225065 ryushare uploaded keep2share

Wow porn hd downloads 225065

Hardcore sex videos in the high definition quality 224715 ryushare uploaded keep2share

Hardcore sex videos in the high definition quality 224715

faapy sexyi x bideos hd 226060 ryushare uploaded keep2share

faapy sexyi x bideos hd 226060

HQ Sex Movies Download 5330 ryushare uploaded keep2share

HQ Sex Movies Download 5330

Tube Young Sex Amateur Orgy 4891 ryushare uploaded keep2share

Tube Young Sex Amateur Orgy 4891

Uploaded net porn XXX 224573 ryushare uploaded keep2share

Uploaded net porn XXX 224573

sex videos with mkv ryushare uploaded keep2share

sex videos with mkv

Teen xxx sex hd 225384 ryushare uploaded keep2share

Teen xxx sex hd 225384

Kail – My Favorite Country ryushare uploaded keep2share

Kail – My Favorite Country

Report broken links / Post a comment

You must be logged in to post a comment.



General\r\nComplete name : D:HD Teens Tube Download Porn Sex clips movies.xxxCBSCTNdyCBSCTNdy.wmv\r\nFormat : Windows Media\r\nFile size : 923 MiB\r\nDuration : 24mn 50s\r\nOverall bit rate : 5 192 Kbps\r\nMaximum Overall bit rate : 5 149 Kbps\r\nEncoded date : UTC 2013-04-26 05:22:22.000\r\n\r\nVideo\r\nID : 1\r\nFormat : VC-1\r\nFormat profile : Main\r\nCodec ID : WMV3\r\nCodec ID/Info : Windows Media Video 9\r\nCodec ID/Hint : WMV3\r\nDescription of the codec : Windows Media Video 337047352 - 2-pass VBR\r\nDuration : 24mn 50s\r\nBit rate : 5 000 Kbps\r\nWidth : 1 280 pixels\r\nHeight : 720 pixels\r\nDisplay aspect ratio : 16:9\r\nFrame rate : 25.000 fps\r\nColor space : YUV\r\nChroma subsampling : 4:2:0\r\nBit depth : 8 bits\r\nScan type : Progressive\r\nCompression mode : Lossy\r\nBits/(Pixel*Frame) : 0.217\r\nStream size : 888 MiB (96%)\r\n\r\nAudio\r\nID : 2\r\nFormat : WMA\r\nFormat version : Version 2\r\nCodec ID : 161\r\nCodec ID/Info : Windows Media Audio\r\nDescription of the codec : Windows Media Audio 9 - 337047352 kbps, 337047352 kHz, stereo CBR\r\nDuration : 24mn 50s\r\nBit rate : 128 Kbps\r\nChannel(s) : 2 channels\r\nSampling rate : 44.1 KHz\r\nBit depth : 16 bits\r\nStream size : 22.7 MiB (2%)\r\n\r\n