Young Virgin Pussy Teen Fuck Tube 1473

HD Porn Videos 1476Teen Porn XXX Tube 1470

Posted in Amateur, HD Porn, Sex Movies, Teen | 10471 Views |


Rate this girl !!!


(34 raters, 144 scores, average: 4.24 out of 5, 84.71%)

http://img102.imagetwist.com/i/05223/pb5ga4y19pkb.jpeg

Link(904 Mb||25:43||1280*720||MP4)



DOWNLOAD

Keep2share.cc - Uploaded.net - Openload.co - Rapidu.net



Premium here:
uploaded.net
keep2share.cc
rapidu.net.cc

Incoming search terms:

  • verginfuckHD
  • xxxhdpronvedio
  • teen99 uhd com
  • virgin barazzars hd com


Teens related to Young Virgin Pussy Teen Fuck Tube 1473


sex videos with mkv ryushare uploaded keep2share

sex videos with mkv

www21SEXE TURY com ryushare uploaded keep2share

www21SEXE TURY com

Beautiful model ryushare uploaded keep2share

Beautiful model

virgin girl sex hd free 226524 ryushare uploaded keep2share

virgin girl sex hd free 226524

Naomi Nevena ryushare uploaded keep2share

Naomi Nevena

FuckStudies.com El Storm ryushare uploaded keep2share

FuckStudies.com El Storm

Kiera Winters – Satisfy Her ryushare uploaded keep2share

Kiera Winters – Satisfy Her

HD Porn Teen Sex Videos 2979 ryushare uploaded keep2share

HD Porn Teen Sex Videos 2979

Www sexy videos shart mb com 226066 ryushare uploaded keep2share

Www sexy videos shart mb com 226066

Fresh Teen Videos 2970 ryushare uploaded keep2share

Fresh Teen Videos 2970

Porn party teen girls 224438 ryushare uploaded keep2share

Porn party teen girls 224438

Alyona – No Mercy For Your Ass ryushare uploaded keep2share

Alyona – No Mercy For Your Ass

The best Teen sex 223940 ryushare uploaded keep2share

The best Teen sex 223940

Teen porn xxx 5290 ryushare uploaded keep2share

Teen porn xxx 5290

yangs xxxhd89 226700 ryushare uploaded keep2share

yangs xxxhd89 226700

[Girlfriends.XxX] Zena Little, Victoria Puppy ryushare uploaded keep2share

[Girlfriends.XxX] Zena Little, Victoria Puppy

Malena Morgan – I Don’t Sing In The Shower ryushare uploaded keep2share

Malena Morgan – I Don’t Sing In The Shower

HD Porn Videos 1376 ryushare uploaded keep2share

HD Porn Videos 1376

sexy full movies hd pron ryushare uploaded keep2share

sexy full movies hd pron

Www hd xvideos download in 225992 ryushare uploaded keep2share

Www hd xvideos download in 225992

hd low space porn video ryushare uploaded keep2share

hd low space porn video

www sexxxxxx cm ryushare uploaded keep2share

www sexxxxxx cm

Hd young videos 224870 ryushare uploaded keep2share

Hd young videos 224870

In Hd quality xxx video for download 226652 ryushare uploaded keep2share

In Hd quality xxx video for download 226652

Small girls and boys porn 3511 ryushare uploaded keep2share

Small girls and boys porn 3511

yang garl sex movi 226280 ryushare uploaded keep2share

yang garl sex movi 226280

The best Teen sex 1220 ryushare uploaded keep2share

The best Teen sex 1220

Hd quality – Teen sex video 4204 ryushare uploaded keep2share

Hd quality – Teen sex video 4204

www sexhd-yesxxx com 226556 ryushare uploaded keep2share

www sexhd-yesxxx com 226556

High Definition Movies on HD Teen Porn XXX Tube 224233 ryushare uploaded keep2share

High Definition Movies on HD Teen Porn XXX Tube 224233

Nubiles-Porn.com Halle Von – Training To Please ryushare uploaded keep2share

Nubiles-Porn.com Halle Von – Training To Please

Hot Teen Sex HD videos 224236 ryushare uploaded keep2share

Hot Teen Sex HD videos 224236

Wow Girls Porn Clips download 224663 ryushare uploaded keep2share

Wow Girls Porn Clips download 224663

Taissia – Take it slow ryushare uploaded keep2share

Taissia – Take it slow

Teens sex mania 223786 ryushare uploaded keep2share

Teens sex mania 223786

Report broken links / Post a comment

You must be logged in to post a comment.



General
Complete name : D:HD Teens Download Porn Sex clips movies Tube.xxxSWTNRZvsSWTNRZvs.mp4
Format : MPEG-4
Format profile : Base Media
Codec ID : isom
File size : 904 MiB
Duration : 25mn 43s
Overall bit rate mode : Variable
Overall bit rate : 4 914 Kbps
Writing application : Lavf52.93.0

Video
ID : 1
Format : AVC
Format/Info : Advanced Video Codec
Format profile : High@L3.1
Format settings, CABAC : Yes
Format settings, ReFrames : 4 frames
Codec ID : avc1
Codec ID/Info : Advanced Video Coding
Duration : 25mn 43s
Bit rate : 4 800 Kbps
Width : 1 280 pixels
Height : 720 pixels
Display aspect ratio : 16:9
Frame rate mode : Constant
Frame rate : 29.970 fps
Color space : YUV
Chroma subsampling : 4:2:0
Bit depth : 8 bits
Scan type : Progressive
Bits/(Pixel*Frame) : 0.174
Stream size : 883 MiB (98%)
Writing library : x264 core 107
Encoding settings : cabac=1 / ref=3 / deblock=1:0:0 / analyse=0x3:0x113 / me=umh / subme=6 / psy=1 / psy_rd=1.00:0.00 / mixed_ref=1 / me_range=16 / chroma_me=1 / trellis=0 / 8x8dct=1 / cqm=0 / deadzone=21,11 / fast_pskip=1 / chroma_qp_offset=-2 / threads=1 / sliced_threads=0 / nr=0 / decimate=1 / interlaced=0 / constrained_intra=0 / bframes=2 / b_pyramid=2 / b_adapt=2 / b_bias=0 / direct=2 / weightb=1 / open_gop=0 / weightp=0 / keyint=30 / keyint_min=16 / scenecut=0 / intra_refresh=0 / rc_lookahead=30 / rc=abr / mbtree=1 / bitrate=4800 / ratetol=1.0 / qcomp=0.60 / qpmin=1 / qpmax=31 / qpstep=4 / ip_ratio=1.41 / aq=1:1.00

Audio
ID : 2
Format : AAC
Format/Info : Advanced Audio Codec
Format profile : LC
Codec ID : 40
Duration : 25mn 43s
Bit rate mode : Variable
Bit rate : 106 Kbps
Channel(s) : 2 channels
Channel positions : Front: L R
Sampling rate : 44.1 KHz
Compression mode : Lossy
Stream size : 19.6 MiB (2%)