Young XXX Tube Videos 1801

Hardcore sex videos in the high definition quality 1804Free High Quality Sex Movies 1788

Posted in HD Porn, Pornstar, Sex Movies, Teen | 14219 Views |


Rate this girl !!!




\r\n\r\nhttp://img56.imagetwist.com/i/05280/9rq2ndnye1q0.jpg\r\n\r\n Link(439 Mb||23:18||950*534||MP4)



DOWNLOAD

Keep2share.cc - Uploaded.net - Openload.co - Rapidu.net


http://keep2share.cc/file/bcd4c77514745
http://ryushare.com/6mpher0fr214/PDKTSky.rar
http://ul.to/31pka23v


Premium here:
uploaded.net
keep2share.cc
rapidu.net.cc


Teens related to Young XXX Tube Videos 1801


Sex in the morning ryushare uploaded keep2share

Sex in the morning

Teens fucked doggy style ryushare uploaded keep2share

Teens fucked doggy style

Teen Tits Tube, Young Girls Porn Videos 2547 ryushare uploaded keep2share

Teen Tits Tube, Young Girls Porn Videos 2547

sex 18 xxxxxxxxx hd ryushare uploaded keep2share

sex 18 xxxxxxxxx hd

Alysa Gap & Beata Undine – Bounty Of Meat ryushare uploaded keep2share

Alysa Gap & Beata Undine – Bounty Of Meat

Nomi – Bikini Land ryushare uploaded keep2share

Nomi – Bikini Land

porn movies ass fucking mkv download 226144 ryushare uploaded keep2share

porn movies ass fucking mkv download 226144

HD Porn Teen Sex Videos 223795 ryushare uploaded keep2share

HD Porn Teen Sex Videos 223795

J. Joanna – I’m Eve. Want An Apple? ryushare uploaded keep2share

J. Joanna – I’m Eve. Want An Apple?

TeenBFF.com Maci Winslett & Alex Tanner – Posing for Cum ryushare uploaded keep2share

TeenBFF.com Maci Winslett & Alex Tanner – Posing for Cum

sex xxx bf england ryushare uploaded keep2share

sex xxx bf england

Free Porn Videos Xxx Movies Pussy Porn 2744 ryushare uploaded keep2share

Free Porn Videos Xxx Movies Pussy Porn 2744

HD Teens Sex Tube Videos XxX 5400 ryushare uploaded keep2share

HD Teens Sex Tube Videos XxX 5400

Wowporn Barbara Sweet & Beata HD ryushare uploaded keep2share

Wowporn Barbara Sweet & Beata HD

Grace Solo 2 ryushare uploaded keep2share

Grace Solo 2

lwww xxxx sex ryushare uploaded keep2share

lwww xxxx sex

Young xxx 224648 ryushare uploaded keep2share

Young xxx 224648

Alice – The Repairman’s Groupie – Episode 413 ryushare uploaded keep2share

Alice – The Repairman’s Groupie – Episode 413

GirlsDoPorn E230 18 Years Old ryushare uploaded keep2share

GirlsDoPorn E230 18 Years Old

Hot sex girls movies download 2609 ryushare uploaded keep2share

Hot sex girls movies download 2609

Teen porn movies 1607 ryushare uploaded keep2share

Teen porn movies 1607

HD Porn Teen Sex Videos 224362 ryushare uploaded keep2share

HD Porn Teen Sex Videos 224362

Free Young Porn Videos XXX Teen Porn 224175 ryushare uploaded keep2share

Free Young Porn Videos XXX Teen Porn 224175

K Three Teasing Tongues 5 -B ryushare uploaded keep2share

K Three Teasing Tongues 5 -B

Viola Paige (Toying Around / 10.12.13) Nubiles.net ryushare uploaded keep2share

Viola Paige (Toying Around / 10.12.13) Nubiles.net

Molly – Deep and passionate anal ryushare uploaded keep2share

Molly – Deep and passionate anal

Teenies Videos – Teen Porn, Teen Sex, XXX Free Videos 1828 ryushare uploaded keep2share

Teenies Videos – Teen Porn, Teen Sex, XXX Free Videos 1828

Good Teen Tube Sexy Young Naked Girls Movies 1383 ryushare uploaded keep2share

Good Teen Tube Sexy Young Naked Girls Movies 1383

Hot Teen Sex HD videos 1748 ryushare uploaded keep2share

Hot Teen Sex HD videos 1748

Wow Girls Porn Clips download 224386 ryushare uploaded keep2share

Wow Girls Porn Clips download 224386

Fresh Teen Videos 4156 ryushare uploaded keep2share

Fresh Teen Videos 4156

Uploaded net porn XXX 225290 ryushare uploaded keep2share

Uploaded net porn XXX 225290

18 years girl xxx sex videos) 2758 ryushare uploaded keep2share

18 years girl xxx sex videos) 2758

fast tiam movie hot xxx hd free 226715 ryushare uploaded keep2share

fast tiam movie hot xxx hd free 226715

girlboy xxxwalpaper 226160 ryushare uploaded keep2share

girlboy xxxwalpaper 226160

Report broken links / Post a comment

You must be logged in to post a comment.



General\r\nComplete name : D:HD Teens Download Porn Sex clips movies Tube.xxxPDKTSkyPDKTSky.mp4\r\nFormat : MPEG-4\r\nFormat profile : Base Media\r\nCodec ID : isom\r\nFile size : 439 MiB\r\nDuration : 23mn 18s\r\nOverall bit rate : 2 633 Kbps\r\nEncoded date : UTC 2014-02-04 04:07:27\r\nTagged date : UTC 2014-02-04 04:07:27\r\nWriting application : Lavf53.24.0\r\n\r\nVideo\r\nID : 1\r\nFormat : AVC\r\nFormat/Info : Advanced Video Codec\r\nFormat profile : High@L3.2\r\nFormat settings, CABAC : Yes\r\nFormat settings, ReFrames : 5 frames\r\nCodec ID : avc1\r\nCodec ID/Info : Advanced Video Coding\r\nDuration : 23mn 18s\r\nBit rate : 2 500 Kbps\r\nWidth : 950 pixels\r\nHeight : 534 pixels\r\nDisplay aspect ratio : 16:9\r\nOriginal display aspect ratio : 16:9\r\nFrame rate mode : Constant\r\nFrame rate : 59.940 fps\r\nColor space : YUV\r\nChroma subsampling : 4:2:0\r\nBit depth : 8 bits\r\nScan type : Progressive\r\nBits/(Pixel*Frame) : 0.082\r\nStream size : 415 MiB (95%)\r\nWriting library : x264 core 119 r2106 07efeb4\r\nEncoding settings : cabac=1 / ref=5 / deblock=1:0:0 / analyse=0x3:0x113 / me=umh / subme=8 / psy=0 / mixed_ref=1 / me_range=16 / chroma_me=1 / trellis=1 / 8x8dct=1 / cqm=0 / deadzone=21,11 / fast_pskip=1 / chroma_qp_offset=0 / threads=24 / sliced_threads=0 / nr=0 / decimate=1 / interlaced=0 / bluray_compat=0 / constrained_intra=0 / bframes=3 / b_pyramid=2 / b_adapt=2 / b_bias=0 / direct=3 / weightb=1 / open_gop=0 / weightp=2 / keyint=250 / keyint_min=25 / scenecut=40 / intra_refresh=0 / rc=abr / mbtree=0 / bitrate=2500 / ratetol=1.0 / qcomp=0.60 / qpmin=10 / qpmax=51 / qpstep=4 / ip_ratio=1.40 / pb_ratio=1.30 / aq=1:1.00\r\nLanguage : English\r\nEncoded date : UTC 2014-02-04 04:07:27\r\nTagged date : UTC 2014-02-04 04:07:27\r\n\r\nAudio\r\nID : 2\r\nFormat : AAC\r\nFormat/Info : Advanced Audio Codec\r\nFormat profile : LC\r\nCodec ID : 40\r\nDuration : 23mn 18s\r\nBit rate mode : Constant\r\nBit rate : 128 Kbps\r\nChannel(s) : 2 channels\r\nChannel positions : Front: L R\r\nSampling rate : 48.0 KHz\r\nCompression mode : Lossy\r\nStream size : 21.3 MiB (5%)\r\nLanguage : English\r\nEncoded date : UTC 2014-02-04 04:07:27\r\nTagged date : UTC 2014-02-04 04:07:27\r\n\r\n