YoungCourtesans.com Brian, Vera – Exquisite Young Courtesan

[Castingcouch-X.com] Alex Tanner21Naturals.com Kiara Lord – Strings of passion

Posted in Amateur, HD Porn, Sex Movies, Teen | 16021 Views |


Rate this girl !!!




cover\r\n\r\n1920x1080p / MP4 / 751.82 MB\r\n

[YoungCourtesans.com] Brian, Vera – Exquisite Young Courtesan

\r\nSCREENSHOTS:\r\n\r\nscreens



DOWNLOAD

Keep2share.cc - Uploaded.net - Openload.co - Rapidu.net


http://ul.to/onjv780k/Br14n_V3r4_1080p.mp4
http://played.to/biae85fkv3lo



Premium here:
uploaded.net
keep2share.cc
rapidu.net.cc


Teens related to YoungCourtesans.com Brian, Vera – Exquisite Young Courtesan


Kiara Lord – Offline Erotica ryushare uploaded keep2share

Kiara Lord – Offline Erotica

xxx vid sex hd18 www ryushare uploaded keep2share

xxx vid sex hd18 www

Teen Sex Movies Young Porn Tube Vids 224610 ryushare uploaded keep2share

Teen Sex Movies Young Porn Tube Vids 224610

HD Porn Video 5646 ryushare uploaded keep2share

HD Porn Video 5646

Teens sex mania 5524 ryushare uploaded keep2share

Teens sex mania 5524

Small girls and boys porn 2683 ryushare uploaded keep2share

Small girls and boys porn 2683

barazzar hd fuck com 226325 ryushare uploaded keep2share

barazzar hd fuck com 226325

xxxvidohd donlwd com ryushare uploaded keep2share

xxxvidohd donlwd com

xxx movie hd colle 226176 ryushare uploaded keep2share

xxx movie hd colle 226176

Little pornstar teen with a big hole ryushare uploaded keep2share

Little pornstar teen with a big hole

Young Sex Movies 224539 ryushare uploaded keep2share

Young Sex Movies 224539

Young legal porn clips 3535 ryushare uploaded keep2share

Young legal porn clips 3535

Free Porn Videos Xxx Movies Pussy Porn 5701 ryushare uploaded keep2share

Free Porn Videos Xxx Movies Pussy Porn 5701

High Definition Movies on HD 3938 ryushare uploaded keep2share

High Definition Movies on HD 3938

hd china teen sex video download ryushare uploaded keep2share

hd china teen sex video download

Hot Teen Sex HD videos 1371 ryushare uploaded keep2share

Hot Teen Sex HD videos 1371

Teenage Fuck Clips 1939 ryushare uploaded keep2share

Teenage Fuck Clips 1939

Kiera Winters – Satisfy Her ryushare uploaded keep2share

Kiera Winters – Satisfy Her

Teen porn movies 224809 ryushare uploaded keep2share

Teen porn movies 224809

hd xxx teens virgintiy videos free download 226703 ryushare uploaded keep2share

hd xxx teens virgintiy videos free download 226703

Teen sex xxx hd 4852 ryushare uploaded keep2share

Teen sex xxx hd 4852

Movies Young legal porn 225237 ryushare uploaded keep2share

Movies Young legal porn 225237

Free Teen Porn Videos at Teen Sex Tube XXX 224751 ryushare uploaded keep2share

Free Teen Porn Videos at Teen Sex Tube XXX 224751

Brunette Shelia Gets a Big Load Of Cum ryushare uploaded keep2share

Brunette Shelia Gets a Big Load Of Cum

www scool xxx com 226417 ryushare uploaded keep2share

www scool xxx com 226417

film sexx japan hd mqnia 226026 ryushare uploaded keep2share

film sexx japan hd mqnia 226026

Jada – A Manwhore For Me ryushare uploaded keep2share

Jada – A Manwhore For Me

High Definition Movies on HD Teen Porn XXX Tube 224233 ryushare uploaded keep2share

High Definition Movies on HD Teen Porn XXX Tube 224233

HD Porn Videos 2135 ryushare uploaded keep2share

HD Porn Videos 2135

Wow girls porn teens 4237 ryushare uploaded keep2share

Wow girls porn teens 4237

Hot Teen Sex HD videos 2167 ryushare uploaded keep2share

Hot Teen Sex HD videos 2167

Hd quality – Teen sex video 225399 ryushare uploaded keep2share

Hd quality – Teen sex video 225399

K Daniela – The Hand-foot-clamp ryushare uploaded keep2share

K Daniela – The Hand-foot-clamp

Young XXX Tube Videos 3741 ryushare uploaded keep2share

Young XXX Tube Videos 3741

Tube xxx 224380 ryushare uploaded keep2share

Tube xxx 224380

Report broken links / Post a comment

You must be logged in to post a comment.



[YoungCourtesans.com] Brian, Vera – Exquisite Young Courtesan \r\n\r\nGeneral\r\nComplete name : J:HD Teens Movies Young Downloads Online Clips Scenes [YoungCourtesans.com] Brian, Vera – Exquisite Young Courtesan Br14n_V3r4_1080p.mp4\r\nFormat : MPEG-4\r\nFormat profile : Base Media\r\nCodec ID : isom\r\nFile size : 752 MiB\r\nDuration : 20mn 38s\r\nOverall bit rate mode : Variable\r\nOverall bit rate : 5 093 Kbps\r\nWriting application : Lavf54.22.101\r\n\r\nVideo\r\nID : 1\r\nFormat : AVC\r\nFormat/Info : Advanced Video Codec\r\nFormat profile : High@L4.0\r\nFormat settings, CABAC : Yes\r\nFormat settings, ReFrames : 4 frames\r\nCodec ID : avc1\r\nCodec ID/Info : Advanced Video Coding\r\nDuration : 20mn 38s\r\nBit rate : 4 976 Kbps\r\nWidth : 1 920 pixels\r\nHeight : 1 080 pixels\r\nDisplay aspect ratio : 16:9\r\nFrame rate mode : Constant\r\nFrame rate : 25.000 fps\r\nColor space : YUV\r\nChroma subsampling : 4:2:0\r\nBit depth : 8 bits\r\nScan type : Progressive\r\nBits/(Pixel*Frame) : 0.096\r\nStream size : 735 MiB (98%)\r\nWriting library : x264 core 125\r\nEncoding settings : cabac=1 / ref=3 / deblock=1:0:0 / analyse=0x3:0x113 / me=hex / subme=7 / psy=1 / psy_rd=1.00:0.00 / mixed_ref=1 / me_range=16 / chroma_me=1 / trellis=0 / 8x8dct=1 / cqm=0 / deadzone=21,11 / fast_pskip=1 / chroma_qp_offset=-2 / threads=16 / lookahead_threads=2 / sliced_threads=0 / nr=0 / decimate=1 / interlaced=0 / bluray_compat=0 / constrained_intra=0 / bframes=8 / b_pyramid=2 / b_adapt=1 / b_bias=0 / direct=1 / weightb=1 / open_gop=0 / weightp=2 / keyint=50 / keyint_min=5 / scenecut=40 / intra_refresh=0 / rc_lookahead=40 / rc=crf / mbtree=1 / crf=20.0 / qcomp=0.60 / qpmin=0 / qpmax=69 / qpstep=4 / ip_ratio=1.40 / aq=1:1.00\r\nLanguage : Russian\r\n\r\nAudio\r\nID : 2\r\nFormat : AAC\r\nFormat/Info : Advanced Audio Codec\r\nFormat profile : LC\r\nCodec ID : 40\r\nDuration : 20mn 38s\r\nBit rate mode : Variable\r\nBit rate : 111 Kbps\r\nMaximum bit rate : 128 Kbps\r\nChannel count : 2 channels\r\nChannel positions : Front: L R\r\nSampling rate : 44.1 KHz\r\nCompression mode : Lossy\r\nStream size : 16.4 MiB (2%)\r\nLanguage : Russian\r\n\r\n