Grace and Kimmie – Friend of a Friend

WowGirls Livia Grace C Getting Off Without A CockBackyard Amateurs (3 scenes)

Posted in Non HD, Sex Movies, Teen | 12459 Views |


Rate this girl !!!




Grace and Kimmie – Friend of a Friend\r\n\r\nGrace and Kimmie – Friend of a Friend\r\n\r\nGrace and Kimmie – Friend of a Friend\r\n\r\nGrace and Kimmie – Friend of a Friend\r\n\r\nGrace and Kimmie – Friend of a Friend\r\n\r\nGrace and Kimmie – Friend of a Friend\r\n\r\n\r\nFile:race and Kimmie – Friend of a Friend.mp4\r\nSize: 548303043 bytes (522.90 MiB), duration: 00:33:35, avg.bitrate: 2177 kb/s\r\nAudio: aac, 44100 Hz, 2 channels, s16, 125 kb/s (und)\r\nVideo: mpeg4, yuv420p, 856×480, 2048 kb/s, 29.97 fps(r) (und)\r\n\r\n\r\n\r\n\r\n\r\n



DOWNLOAD

Keep2share.cc - Uploaded.net - Openload.co - Rapidu.net


http://ryushare.com/1d31dd1ee921/Gr4c3.K1mm13.Fr13nd.Fr13nd.rar
http://keep2share.cc/file/5274432642f43
http://ul.to/78dtqkcl


Premium here:
uploaded.net
keep2share.cc
rapidu.net.cc

Teens related to Grace and Kimmie – Friend of a Friend


Angel-Desert – Publics Pizzeria – Il Gusto ryushare uploaded keep2share

Angel-Desert – Publics Pizzeria – Il Gusto

Teen Sex Movies 1891 ryushare uploaded keep2share

Teen Sex Movies 1891

Free High Quality Sex Movies 2128 ryushare uploaded keep2share

Free High Quality Sex Movies 2128

Teen Sex Movies 2658 ryushare uploaded keep2share

Teen Sex Movies 2658

Porno movies young teens lesbian 5426 ryushare uploaded keep2share

Porno movies young teens lesbian 5426

Kissme Girl – Aidra Fox & Sasha ryushare uploaded keep2share

Kissme Girl – Aidra Fox & Sasha

Nikita – Craving For Sex. R E D ryushare uploaded keep2share

Nikita – Craving For Sex. R E D

HD Teen Sex Tube 2585 ryushare uploaded keep2share

HD Teen Sex Tube 2585

Free Teen Porn Videos at Teen Sex Tube XXX 5378 ryushare uploaded keep2share

Free Teen Porn Videos at Teen Sex Tube XXX 5378

Hd young videos 4536 ryushare uploaded keep2share

Hd young videos 4536

21Naturals.com Doris Ivy – Unchained ryushare uploaded keep2share

21Naturals.com Doris Ivy – Unchained

Teen Porn XXX Tube 224445 ryushare uploaded keep2share

Teen Porn XXX Tube 224445

Teen Tits Tube, Young Girls Porn Videos 2329 ryushare uploaded keep2share

Teen Tits Tube, Young Girls Porn Videos 2329

Dinara – TeenSexMania – TeenMegaWorld ryushare uploaded keep2share

Dinara – TeenSexMania – TeenMegaWorld

Watch Teen Sex Videos HD 2305 ryushare uploaded keep2share

Watch Teen Sex Videos HD 2305

Wow girls hd porn teens 224337 ryushare uploaded keep2share

Wow girls hd porn teens 224337

Teen Tits Tube, Young Girls Porn Videos 1565 ryushare uploaded keep2share

Teen Tits Tube, Young Girls Porn Videos 1565

Linda S – I’Am Your Woman ryushare uploaded keep2share

Linda S – I’Am Your Woman

australia teen porn xxx ryushare uploaded keep2share

australia teen porn xxx

8 Teen XXX – Teen Sex 224622 ryushare uploaded keep2share

8 Teen XXX – Teen Sex 224622

Young XXX Tube Videos 223682 ryushare uploaded keep2share

Young XXX Tube Videos 223682

www Short hd sexvideos Com ryushare uploaded keep2share

www Short hd sexvideos Com

EuroSexParties Tiana And Beata Undine Time For Playing ryushare uploaded keep2share

EuroSexParties Tiana And Beata Undine Time For Playing

Teenage Fuck Clips 225321 ryushare uploaded keep2share

Teenage Fuck Clips 225321

www hd teen movie download com 226210 ryushare uploaded keep2share

www hd teen movie download com 226210

17sex viodeos 226514 ryushare uploaded keep2share

17sex viodeos 226514

Rosaline Rosa & Vanda Lust – On The Sly ryushare uploaded keep2share

Rosaline Rosa & Vanda Lust – On The Sly

Sweet Teen Porn – Young Porn Videos 224912 ryushare uploaded keep2share

Sweet Teen Porn – Young Porn Videos 224912

www sex all world hd com 226654 ryushare uploaded keep2share

www sex all world hd com 226654

sex 18 xxxxxxxxx hd ryushare uploaded keep2share

sex 18 xxxxxxxxx hd

Teen Sex Movies 224085 ryushare uploaded keep2share

Teen Sex Movies 224085

Nude Teens fucking hard 3040 ryushare uploaded keep2share

Nude Teens fucking hard 3040

www hd 18years sex videos free downlode net 226256 ryushare uploaded keep2share

www hd 18years sex videos free downlode net 226256

Schoolgirl white skin ryushare uploaded keep2share

Schoolgirl white skin

College Teen Sex 223710 ryushare uploaded keep2share

College Teen Sex 223710

Report broken links / Post a comment

You must be logged in to post a comment.



General\r\nComplete name : C:HD TEENS PORNDOWNLOADRYUSHAREUPLOADEDKEEP2SHAREGrace and Kimmie - Friend of a Friend.mp4\r\nFormat : MPEG-4\r\nFormat profile : Base Media / Version 2\r\nCodec ID : mp42\r\nFile size : 523 MiB\r\nDuration : 33mn 35s\r\nOverall bit rate mode : Variable\r\nOverall bit rate : 2 177 Kbps\r\nEncoded date : UTC 2013-08-06 15:58:58\r\nTagged date : UTC 2013-08-06 15:58:58\r\nWriting application : FormatFactory : www.pcfreetime.com\r\n\r\nVideo\r\nID : 201\r\nFormat : MPEG-4 Visual\r\nFormat profile : Simple@L1\r\nFormat settings, BVOP : No\r\nFormat settings, QPel : No\r\nFormat settings, GMC : No warppoints\r\nFormat settings, Matrix : Default (H.263)\r\nCodec ID : 20\r\nDuration : 33mn 35s\r\nBit rate mode : Variable\r\nBit rate : 2 048 Kbps\r\nMaximum bit rate : 4 768 Kbps\r\nWidth : 856 pixels\r\nHeight : 480 pixels\r\nDisplay aspect ratio : 16:9\r\nFrame rate mode : Constant\r\nFrame rate : 29.970 fps\r\nColor space : YUV\r\nChroma subsampling : 4:2:0\r\nBit depth : 8 bits\r\nScan type : Progressive\r\nCompression mode : Lossy\r\nBits/(Pixel*Frame) : 0.166\r\nStream size : 492 MiB (94%)\r\nWriting library : Lavc53.8.0\r\nEncoded date : UTC 2013-08-06 15:58:58\r\nTagged date : UTC 2013-08-06 16:00:02\r\n\r\nAudio\r\nID : 101\r\nFormat : AAC\r\nFormat/Info : Advanced Audio Codec\r\nFormat profile : LC\r\nCodec ID : 40\r\nDuration : 33mn 35s\r\nBit rate mode : Variable\r\nBit rate : 126 Kbps\r\nMaximum bit rate : 182 Kbps\r\nChannel(s) : 2 channels\r\nChannel positions : Front: L R\r\nSampling rate : 44.1 KHz\r\nCompression mode : Lossy\r\nStream size : 30.2 MiB (6%)\r\nEncoded date : UTC 2013-08-06 15:59:57\r\nTagged date : UTC 2013-08-06 16:00:02