Morgan Brooke – Very hot teen – Tease.Me

Rocco Siffredi Casting1080pSquirters Juice Bar Carla Cox

Posted in Non HD, Sex Movies, Teen | Posted on 31-10-2013 | 7001 Views | FavoriteLoadingAdd to favorites

Rate this girl !!!



(25 raters, 86 scores, average: 3.44 out of 5, 68.8%)


Morgan Brooke 26.10.13
Morgan Brooke – Very hot teen – Tease.Me

Morgan Brooke – Very hot teen – Tease.Me

Morgan Brooke – Very hot teen – Tease.Me

Morgan Brooke – Very hot teen – Tease.Me

Morgan Brooke – Very hot teen – Tease.Me

File:Morgan Brooke – Very hot teen – HDteenmania.com.avi
Size: 338804498 bytes (323.11 MiB), duration: 00:28:15, avg.bitrate: 1599 kb/s
Audio: mp3, 48000 Hz, 2 channels, s16, 96 kb/s
Video: mpeg4, yuv420p, 624×352, 23.98 fps(r)




Premium here:
uploaded.net
keep2share.cc

Incoming search terms:

  • very hot sex
  • very hot sex video
  • sex very hot
  • very very hot sex video
  • ryushare com porn
  • very hot sex porn
  • very hot teen sex video
  • pornsex hot
  • very hot poran sex
  • hot porn sex video
  • morgan brooke porn
  • morgan brooks onlyteenblowjobs streamcloud
  • hot sex of teenagers
  • 18 hotporansex net
  • Hot movies pornsex
  • hot teen tease for sex
  • link porn hd
  • teens tease porn
  • Morgan Brooke anal k2s
  • very pornsex
  • porno very hot
  • Porn 96
  • very very hot sex
  • 96 porn
  • hot s sex


Tags: , , , , , ,

Teens related to Morgan Brooke – Very hot teen – Tease.Me


Report broken links / Post a comment

You must be logged in to post a comment.



General
Complete name : H:HD TEENS PORNDOWNLOADRYUSHAREUPLOADEDKEEP2SHAREMorgan Brooke - Very hot teen - HDteenmania.com.avi
Format : AVI
Format/Info : Audio Video Interleave
File size : 323 MiB
Duration : 28mn 15s
Overall bit rate mode : Variable
Overall bit rate : 1 598 Kbps
Writing application : VirtualDubMod 1.5.10.2 (build 2540/release)
Writing library : VirtualDub build 32817/release

Video
ID : 0
Format : MPEG-4 Visual
Format profile : Simple@L5
Format settings, BVOP : No
Format settings, QPel : No
Format settings, GMC : No warppoints
Format settings, Matrix : Default (H.263)
Codec ID : XVID
Codec ID/Hint : XviD
Duration : 28mn 15s
Bit rate : 1 459 Kbps
Width : 624 pixels
Height : 352 pixels
Display aspect ratio : 16:9
Frame rate : 23.976 fps
Color space : YUV
Chroma subsampling : 4:2:0
Bit depth : 8 bits
Scan type : Progressive
Compression mode : Lossy
Bits/(Pixel*Frame) : 0.277
Stream size : 295 MiB (91%)
Writing library : XviD 64

Audio
ID : 1
Format : MPEG Audio
Format version : Version 1
Format profile : Layer 3
Mode : Joint stereo
Mode extension : MS Stereo
Codec ID : 55
Codec ID/Hint : MP3
Duration : 28mn 15s
Bit rate mode : Variable
Bit rate : 128 Kbps
Channel(s) : 2 channels
Sampling rate : 48.0 KHz
Compression mode : Lossy
Stream size : 25.5 MiB (8%)
Alignment : Aligned on interleaves
Interleave, duration : 24 ms (0.58 video frame)
Interleave, preload duration : 507 ms